1. ## ## #### ## ## ######## ###### ## ## #######
  2. ## ## ## ## ## ## ## ## ### ### ## ##
  3. ## ## ## ## ## ## ## #### #### ## ##
  4. ######### ## ## ## ###### ####### ## ## ### ## #######
  5. ## ## ## ## ## ## ## ## ## ## ##
  6. ## ## ## ## ## ## ## ## ## ## ## ##
  7. ## ## #### ### ######## ###### ## ## #######
  8. ########### Thx Hive - CM8 Doing It Right The First Time ###########
  9. [IMG]http://img198.imageshack.us/img198/2684/deadmandownx650.jpg[/IMG]
  10. Dead.Man.Down.2013.DVDRip.XVID.AC3.HQ.Hive-CM8
  11. Source: DVD-R
  12. Video.: 720x304 @bitrate 1700 2pass
  13. Audio.: English AC3 5.1 @384
  14. Subs..: Yes, English in srt/subs
  15. Sample: Yes, included
  16. IMDb..: http://www.imdb.com/title/tt2101341/
  17. ENCODE
  18. found the dvd finally, didnt have the highest bitrate, was interlaced and
  19. a little bit dark, but fixable. wasnt easy to make a perfect version, tried
  20. 7 videos before this one. with the interlace and brightening up there wasnt
  21. much space for sharpness, some daylight scenes couldnt take the brightening
  22. but i found a nice way through it. removed interlace, added a lot of
  23. brightness to standard levels and added sharpness and denoise.
  24. got very nice
  25. enjoy
  26. General
  27. Complete name : Dead.Man.Down.2013.DVDRip.XVID.AC3.HQ.Hive-CM8.avi
  28. Format : AVI
  29. Format/Info : Audio Video Interleave
  30. File size : 1.72 GiB
  31. Duration : 1h 57mn
  32. Overall bit rate : 2 093 Kbps
  33. Writing application : Nandub v1.0rc2
  34. Writing library : Nandub build 1853/release
  35. Video
  36. ID : 0
  37. Format : MPEG-4 Visual
  38. Format profile : Advanced Simple@L5
  39. Format settings, BVOP : 2
  40. Format settings, QPel : Yes
  41. Format settings, GMC : No warppoints
  42. Format settings, Matrix : Default (H.263)
  43. Muxing mode : Packed bitstream
  44. Codec ID : XVID
  45. Codec ID/Hint : XviD
  46. Duration : 1h 57mn
  47. Bit rate : 1 700 Kbps
  48. Width : 720 pixels
  49. Height : 304 pixels
  50. Display aspect ratio : 2.35:1
  51. Frame rate : 23.976 fps
  52. Color space : YUV
  53. Chroma subsampling : 4:2:0
  54. Bit depth : 8 bits
  55. Scan type : Progressive
  56. Compression mode : Lossy
  57. Bits/(Pixel*Frame) : 0.324
  58. Stream size : 1.39 GiB (81%)
  59. Writing library : XviD 1.2.1 (UTC 2008-12-04)
  60. Audio
  61. ID : 1
  62. Format : AC-3
  63. Format/Info : Audio Coding 3
  64. Mode extension : CM (complete main)
  65. Format settings, Endianness : Big
  66. Codec ID : 2000
  67. Duration : 1h 57mn
  68. Bit rate mode : Constant
  69. Bit rate : 384 Kbps
  70. Channel(s) : 6 channels
  71. Channel positions : Front: L C R, Side: L R, LFE
  72. Sampling rate : 48.0 KHz
  73. Bit depth : 16 bits
  74. Compression mode : Lossy
  75. Stream size : 323 MiB (18%)
  76. Alignment : Split accross interleaves
  77. Interleave, duration : 42 ms (1.00 video frame)
  78. Interleave, preload duration : 500 ms
  79. PLOT
  80. An action thriller about two strangers whose mutual desire
  81. for revenge draws them together and triggers an escalating
  82. trail of mayhem.
  83. CAST
  84. Colin Farrell ... Victor
  85. Noomi Rapace ... Beatrice
  86. Terrence Howard ... Alphonse
  87. Dominic Cooper ... Darcy
  88. [img]http://img27.imageshack.us/img27/5359/dmdm.png[/img]
  89. [img]http://img594.imageshack.us/img594/2053/53718413.png[/img]
  90. [img]http://img20.imageshack.us/img20/268/dmddmm.png[/img]
  91. [img]http://img811.imageshack.us/img811/5783/dmddmdmm.png[/img]
  92. [img]http://img194.imageshack.us/img194/2935/dmddmddmmm.png[/img]
  93. [img]http://img845.imageshack.us/img845/8383/dmddmddmdmmm.png[/img]
  94. [video=http://www.youtube.com/watch?v=6WKmnAcMTKM]
  95. GREETZ
  96. ViSiON,SPK,SceneLovers,PRESTiGE,SANTi,3LT0N,YanKeeS,COPYxRIGHT,THC,T0XiC
  97. D2U,LKRG,ADTRG,Feel-Free,KoDeKinG,FLAWL3SS,WBZ,BHRG,26K,NOVA,MAGNET
  98. Unevano,BigVik,Rapeseed,SAFC,goldadvance,KaN1vE,Pinnz,Wayne,TED
  99. SeeN,jtr,Limey,ICONiK,4PlayHD,THEDEN-RG,eXceSs,AKS74u,HiGH
  100. Mr Hive,trepario,stallone,and most P2P groups
  101. Great Work Guys!
  102. LOOKING FOR ANYTHING YOU WANT TO LOOK AND SOUND BETTER
  103. [email protected]
Comments powered by Disqus