1. ooooo ooo ooooo ooo o8o .oooooo. ooooo ooo oooooooooooo
  2. `888' `8' `888b. `8' `"' d8P' `Y8b `888' `8' `888' `8
  3. 888 8 8 `88b. 8 oooo 888 888 888 8 888
  4. 888 8 8 `88b. 8 `888 888 888 888 8 888oooo8
  5. 888 8 8 `88b.8 888 888 888 888 8 888 "
  6. `88. .8' 8 `888 888 `88b d88b `88. .8' 888 o
  7. `YbodP' o8o `8 o888o `Y8bood8P'Ybd' `YbodP' o888ooooood8
  8. [[.........why be the same as everyone else when YOU can be UNiQUE.........]]
  9. Format : AVI
  10. Format/Info : Audio Video Interleave
  11. File size : 1.45 GiB
  12. Duration : 1h 26mn
  13. Overall bit rate : 2 402 Kbps
  14. Writing application : VirtualDubMod 1.5.10.2 (build 2540/release)
  15. Writing library : VirtualDubMod build 2540/release
  16. Video
  17. ID : 0
  18. Format : MPEG-4 Visual
  19. Format profile : Advanced Simple@L5
  20. Format settings, BVOP : 2
  21. Format settings, QPel : No
  22. Format settings, GMC : No warppoints
  23. Format settings, Matrix : Default (H.263)
  24. Muxing mode : Packed bitstream
  25. Codec ID : XVID
  26. Codec ID/Hint : XviD
  27. Duration : 1h 26mn
  28. Bit rate : 1 945 Kbps
  29. Width : 720 pixels
  30. Height : 304 pixels
  31. Display aspect ratio : 5:4
  32. Original display aspect ratio : 2.35:1
  33. Frame rate : 25.000 fps
  34. Color space : YUV
  35. Chroma subsampling : 4:2:0
  36. Bit depth : 8 bits
  37. Scan type : Progressive
  38. Compression mode : Lossy
  39. Bits/(Pixel*Frame) : 0.355
  40. Stream size : 1.18 GiB (81%)
  41. Writing library : XviD 64
  42. Audio
  43. ID : 1
  44. Format : AC-3
  45. Format/Info : Audio Coding 3
  46. Mode extension : CM (complete main)
  47. Format settings, Endianness : Big
  48. Codec ID : 2000
  49. Duration : 1h 26mn
  50. Bit rate mode : Constant
  51. Bit rate : 448 Kbps
  52. Channel(s) : 6 channels
  53. Channel positions : Front: L C R, Side: L R, LFE
  54. Sampling rate : 48.0 KHz
  55. Bit depth : 16 bits
  56. Compression mode : Lossy
  57. Stream size : 278 MiB (19%)
  58. Alignment : Aligned on interleaves
  59. Interleave, duration : 40 ms (1.00 video frame)
  60. Interleave, preload duration : 512 ms
  61. http://www.imdb.com/title/tt1525366/
  62. Ratings: 6.3/10 from 1,160 users
  63. Reviews: 13 user | 82 critic
  64. When an island off the coast of Ireland is invaded by bloodsucking aliens, the heroes discover that getting drunk is the only way to survive.
  65. Director: Jon Wright
  66. Writer: Kevin Lehane
  67. Stars: Richard Coyle, Ruth Bradley and Russell Tovey | See full cast and crew
  68. Source Used
  69. RETAiL DVDR.....thehead and elvis......Thanks
  70. Enjoy
Comments powered by Disqus