1. ## ## #### ## ## ######## ###### ## ## #######
  2. ## ## ## ## ## ## ## ## ### ### ## ##
  3. ## ## ## ## ## ## ## #### #### ## ##
  4. ######### ## ## ## ###### ####### ## ## ### ## #######
  5. ## ## ## ## ## ## ## ## ## ## ##
  6. ## ## ## ## ## ## ## ## ## ## ## ##
  7. ## ## #### ### ######## ###### ## ## #######
  8. ########### Thx Hive - CM8 Doing It Right The First Time ###########
  9. [IMG]http://img46.imageshack.us/img46/920/identitythiefbluraycove.jpg[/IMG]
  10. Identity.Thief.2013.UNRATED.HDRip.XVID.AC3.HQ.Hive-CM8
  11. Source: 1080p WEB-DL - thx
  12. Video.: 720x304 @bitrate 1500 2pass
  13. Audio.: English AC3 5.1 @384
  14. Subs..: Yes, English in srt/subs
  15. Sample: Yes, included
  16. IMDb..: http://www.imdb.com/title/tt2024432/
  17. ENCODE
  18. brightness, contrast, rgb adjusted as needed
  19. added sharpness and denoise
  20. got very nice
  21. enjoy
  22. General
  23. Complete name : Identity.Thief.2013.UNRATED.HDRip.XVID.AC3.HQ.Hive-CM8.avi
  24. Format : AVI
  25. Format/Info : Audio Video Interleave
  26. File size : 1.59 GiB
  27. Duration : 2h 0mn
  28. Overall bit rate : 1 893 Kbps
  29. Writing application : Nandub v1.0rc2
  30. Writing library : Nandub build 1853/release
  31. Video
  32. ID : 0
  33. Format : MPEG-4 Visual
  34. Format profile : Advanced Simple@L5
  35. Format settings, BVOP : 2
  36. Format settings, QPel : Yes
  37. Format settings, GMC : No warppoints
  38. Format settings, Matrix : Default (H.263)
  39. Muxing mode : Packed bitstream
  40. Codec ID : XVID
  41. Codec ID/Hint : XviD
  42. Duration : 2h 0mn
  43. Bit rate : 1 500 Kbps
  44. Width : 720 pixels
  45. Height : 304 pixels
  46. Display aspect ratio : 2.35:1
  47. Frame rate : 23.976 fps
  48. Color space : YUV
  49. Chroma subsampling : 4:2:0
  50. Bit depth : 8 bits
  51. Scan type : Progressive
  52. Compression mode : Lossy
  53. Bits/(Pixel*Frame) : 0.286
  54. Stream size : 1.26 GiB (79%)
  55. Writing library : XviD 1.2.1 (UTC 2008-12-04)
  56. Audio
  57. ID : 1
  58. Format : AC-3
  59. Format/Info : Audio Coding 3
  60. Mode extension : CM (complete main)
  61. Format settings, Endianness : Big
  62. Codec ID : 2000
  63. Duration : 2h 0mn
  64. Bit rate mode : Constant
  65. Bit rate : 384 Kbps
  66. Channel(s) : 6 channels
  67. Channel positions : Front: L C R, Side: L R, LFE
  68. Sampling rate : 48.0 KHz
  69. Bit depth : 16 bits
  70. Compression mode : Lossy
  71. Stream size : 331 MiB (20%)
  72. Alignment : Split accross interleaves
  73. Interleave, duration : 42 ms (1.00 video frame)
  74. Interleave, preload duration : 500 ms
  75. PLOT
  76. Mild-mannered businessman Sandy Patterson travels from Denver to Miami
  77. to confront the deceptively harmless-looking woman who has been living
  78. it up after stealing Sandy's identity.
  79. CAST
  80. Jason Bateman ... Sandy Patterson
  81. Melissa McCarthy ... Diana
  82. Amanda Peet ... Trish Patterson
  83. Jon Favreau ... Harold Cornish
  84. [img]http://img13.imageshack.us/img13/9755/itiititt.png[/img]
  85. [img]http://img59.imageshack.us/img59/4134/itiitt.png[/img]
  86. [img]http://img547.imageshack.us/img547/9815/itit.png[/img]
  87. [img]http://img842.imageshack.us/img842/4559/41629319.png[/img]
  88. [video=http://www.youtube.com/watch?v=GqQg6Rlt6W4]
  89. GREETZ
  90. ViSiON,SPK,SceneLovers,PRESTiGE,SANTi,3LT0N,YanKeeS,COPYxRIGHT,THC,T0XiC
  91. D2U,LKRG,ADTRG,Feel-Free,KoDeKinG,FLAWL3SS,WBZ,BHRG,26K,NOVA,MAGNET
  92. Unevano,BigVik,Rapeseed,SAFC,goldadvance,KaN1vE,Pinnz,Wayne,TED
  93. SeeN,jtr,Limey,ICONiK,4PlayHD,THEDEN-RG,eXceSs,AKS74u,HiGH
  94. Mr Hive,trepario,stallone,and most P2P groups
  95. Great Work Guys!
  96. LOOKING FOR ANYTHING YOU WANT TO LOOK AND SOUND BETTER
  97. [email protected]
Comments powered by Disqus