1. [IMG]http://i.imgur.com/3ouvH8F.jpg[/IMG]
  2. Source: DVDscr.x264.AC3-SmY
  3. Notes: I didnt know what to call this so r6 is in place.. This has chinese audio, but has english subs hardcoded, I changed the framerate to constant, see if that helped the juddering then just Resized, lowered sat, contrast, raised brightness, levels and added slight sharpen. Heres my take on it, Enjoy.
  4. http://www.imdb.com/title/tt2644714
  5. When a spate of eerie murders erupts across HK two troublemaking cops are assigned to the case. Young maverick WANG and grizzled vet HUANG who is fed up with his reckless younger partner always landing them in hot water. Reaching a dead end after discovering all the victims were former boyfriends of aspiring starlet LIU, the detectives must play a deadly game.
  6. General
  7. Complete name : Badges Of Fury 2013 R6 HC ENGSUB x264 AAC-BadMeetsEvil.mp4
  8. Format : MPEG-4
  9. Format profile : Base Media
  10. Codec ID : isom
  11. File size : 700 MiB
  12. Duration : 1h 32mn
  13. Overall bit rate mode : Variable
  14. Overall bit rate : 1 055 Kbps
  15. Encoded date : UTC 2013-06-26 07:18:54
  16. Tagged date : UTC 2013-06-26 07:18:54
  17. Video
  18. ID : 1
  19. Format : AVC
  20. Format/Info : Advanced Video Codec
  21. Format profile : [email protected]
  22. Format settings, CABAC : Yes
  23. Format settings, ReFrames : 3 frames
  24. Codec ID : avc1
  25. Codec ID/Info : Advanced Video Coding
  26. Duration : 1h 32mn
  27. Bit rate mode : Variable
  28. Bit rate : 916 Kbps
  29. Maximum bit rate : 40.0 Mbps
  30. Width : 720 pixels
  31. Height : 304 pixels
  32. Display aspect ratio : 2.35:1
  33. Frame rate mode : Constant
  34. Frame rate : 29.970 fps
  35. Color space : YUV
  36. Chroma subsampling : 4:2:0
  37. Bit depth : 8 bits
  38. Scan type : Progressive
  39. Bits/(Pixel*Frame) : 0.140
  40. Stream size : 607 MiB (87%)
  41. Writing library : x264 core 133 r2334 a3ac64b
  42. Audio
  43. ID : 2
  44. Format : AAC
  45. Format/Info : Advanced Audio Codec
  46. Format profile : LC
  47. Codec ID : 40
  48. Duration : 1h 32mn
  49. Bit rate mode : Variable
  50. Bit rate : 135 Kbps
  51. Maximum bit rate : 156 Kbps
  52. Channel(s) : 2 channels
  53. Channel positions : Front: L R
  54. Sampling rate : 48.0 KHz
  55. Compression mode : Lossy
  56. Stream size : 89.6 MiB (13%)
  57. Language : Chinese
  58. Encoded date : UTC 2013-06-25 19:53:10
  59. Tagged date : UTC 2013-06-26 07:19:21
  60. Subtitles: Hardcoded chinese and english throughout
Comments powered by Disqus