1. General
  2. Complete name : D:\encode\Phantom.2013.BRRip.XviD-playXD\Phantom.2013.BRRip.XviD-playXD.avi
  3. Format : AVI
  4. Format/Info : Audio Video Interleave
  5. File size : 695 MiB
  6. Duration : 1h 38mn
  7. Overall bit rate : 987 Kbps
  8. Video
  9. ID : 0
  10. Format : MPEG-4 Visual
  11. Format profile : Advanced Simple@L5
  12. Format settings, BVOP : 2
  13. Format settings, QPel : No
  14. Format settings, GMC : No warppoints
  15. Format settings, Matrix : Default (H.263)
  16. Codec ID : XVID
  17. Codec ID/Hint : XviD
  18. Duration : 1h 38mn
  19. Bit rate : 853 Kbps
  20. Width : 640 pixels
  21. Height : 272 pixels
  22. Display aspect ratio : 2.35:1
  23. Frame rate : 23.976 fps
  24. Color space : YUV
  25. Chroma subsampling : 4:2:0
  26. Bit depth : 8 bits
  27. Scan type : Progressive
  28. Compression mode : Lossy
  29. Bits/(Pixel*Frame) : 0.204
  30. Stream size : 601 MiB (86%)
  31. Writing library : XviD 1.2.1 (UTC 2008-12-04)
  32. Audio
  33. ID : 1
  34. Format : MPEG Audio
  35. Format version : Version 1
  36. Format profile : Layer 3
  37. Mode : Joint stereo
  38. Mode extension : MS Stereo
  39. Codec ID : 55
  40. Codec ID/Hint : MP3
  41. Duration : 1h 38mn
  42. Bit rate mode : Constant
  43. Bit rate : 128 Kbps
  44. Channel(s) : 2 channels
  45. Sampling rate : 48.0 KHz
  46. Compression mode : Lossy
  47. Stream size : 90.2 MiB (13%)
  48. Alignment : Aligned on interleaves
  49. Interleave, duration : 167 ms (4.00 video frames)
  50. Interleave, preload duration : 216 ms
  51. Title : inf-phantom.720p (1) - [0] English_audio
  52. Writing library : LAME3.99r
  53. Encoding settings : -m j -V 4 -q 2 -lowpass 17 -b 128
Comments powered by Disqus