1. ## ## #### ## ## ######## ###### ## ## #######
  2. ## ## ## ## ## ## ## ## ### ### ## ##
  3. ## ## ## ## ## ## ## #### #### ## ##
  4. ######### ## ## ## ###### ####### ## ## ### ## #######
  5. ## ## ## ## ## ## ## ## ## ## ##
  6. ## ## ## ## ## ## ## ## ## ## ## ##
  7. ## ## #### ### ######## ###### ## ## #######
  8. ########### Thx Hive - CM8 Doing It Right The First Time ###########
  9. [IMG]http://img197.imageshack.us/img197/7893/blackrock.jpg[/IMG]
  10. Black.Rock.2012.HDRip.XVID.AC3.HQ.Hive-CM8
  11. Source: 720p WEB-DL PHD - thx
  12. Video.: 720x384 @bitrate 1700 2pass
  13. Audio.: English AC3 5.1 @384
  14. Subs..: Yes, English in srt/subs
  15. Sample: Yes, included
  16. IMDb..: http://www.imdb.com/title/tt1930294/
  17. ENCODE
  18. video looked really nice, so just sharpness and denoise
  19. got very nice
  20. enjoy
  21. General
  22. Complete name : Black.Rock.2012.HDRip.XVID.AC3.HQ.Hive-CM8.avi
  23. Format : AVI
  24. Format/Info : Audio Video Interleave
  25. File size : 1.17 GiB
  26. Duration : 1h 19mn
  27. Overall bit rate : 2 090 Kbps
  28. Writing application : Nandub v1.0rc2
  29. Writing library : Nandub build 1853/release
  30. Video
  31. ID : 0
  32. Format : MPEG-4 Visual
  33. Format profile : Advanced Simple@L5
  34. Format settings, BVOP : 2
  35. Format settings, QPel : Yes
  36. Format settings, GMC : No warppoints
  37. Format settings, Matrix : Default (H.263)
  38. Muxing mode : Packed bitstream
  39. Codec ID : XVID
  40. Codec ID/Hint : XviD
  41. Duration : 1h 19mn
  42. Bit rate : 1 697 Kbps
  43. Width : 720 pixels
  44. Height : 384 pixels
  45. Display aspect ratio : 1.85:1
  46. Frame rate : 23.976 fps
  47. Color space : YUV
  48. Chroma subsampling : 4:2:0
  49. Bit depth : 8 bits
  50. Scan type : Progressive
  51. Compression mode : Lossy
  52. Bits/(Pixel*Frame) : 0.256
  53. Stream size : 970 MiB (81%)
  54. Writing library : XviD 1.2.1 (UTC 2008-12-04)
  55. Audio
  56. ID : 1
  57. Format : AC-3
  58. Format/Info : Audio Coding 3
  59. Mode extension : CM (complete main)
  60. Format settings, Endianness : Big
  61. Codec ID : 2000
  62. Duration : 1h 19mn
  63. Bit rate mode : Constant
  64. Bit rate : 384 Kbps
  65. Channel(s) : 6 channels
  66. Channel positions : Front: L C R, Side: L R, LFE
  67. Sampling rate : 48.0 KHz
  68. Bit depth : 16 bits
  69. Compression mode : Lossy
  70. Stream size : 219 MiB (18%)
  71. Alignment : Split accross interleaves
  72. Interleave, duration : 42 ms (1.00 video frame)
  73. Interleave, preload duration : 500 ms
  74. PLOT
  75. Three childhood friends set aside their personal issues and reunite for a
  76. girls' weekend on a remote island off the coast of Maine. One wrong move
  77. turns their weekend getaway into a deadly fight for survival.
  78. CAST
  79. Katie Aselton ... Abby
  80. Lake Bell ... Lou
  81. Kate Bosworth ... Sarah
  82. [img]http://img546.imageshack.us/img546/6741/brbro.png[/img]
  83. [img]http://img826.imageshack.us/img826/279/brbrbr.png[/img]
  84. [img]http://img21.imageshack.us/img21/3753/brbrbrbr.png[/img]
  85. [img]http://img203.imageshack.us/img203/8220/brbrbrbrbr.png[/img]
  86. [img]http://img203.imageshack.us/img203/1079/13468477.png[/img]
  87. [video=http://www.youtube.com/watch?v=pCrjq3B0h10]
  88. GREETZ
  89. ViSiON,SPK,SceneLovers,PRESTiGE,SANTi,3LT0N,YanKeeS,COPYxRIGHT,THC,T0XiC
  90. D2U,LKRG,ADTRG,Feel-Free,KoDeKinG,FLAWL3SS,WBZ,BHRG,26K,NOVA,MAGNET
  91. Unevano,BigVik,Rapeseed,SAFC,goldadvance,KaN1vE,Pinnz,Wayne,TED
  92. SeeN,jtr,Limey,ICONiK,4PlayHD,THEDEN-RG,eXceSs,AKS74u,HiGH
  93. Mr Hive,trepario,stallone,and most P2P groups
  94. Great Work Guys!
  95. LOOKING FOR ANYTHING YOU WANT TO LOOK AND SOUND BETTER
  96. [email protected]
Comments powered by Disqus