1. [IMG]http://img829.imageshack.us/img829/3503/igiveitayearver2xxlg.jpg[/IMG]
  2. [color=blue][size=5][b]I.Give.It.a.Year.2013.R5.DVDRip.XVID.AC3.HQ.Hive-CM8[/b][/size][/color]
  3. Source:
  4. Russian DVD-9 Daju.god.2013.D.DVD
  5. Encode:
  6. quality of the dvd was ok, also came along with nice english studio audio.
  7. colours were as usual reddish, so tried to fix the colours to normal levels, looks better now.
  8. added sharpness and denoise
  9. got very nice
  10. enjoy
  11. Video: 720x304 @bitrate 1600 2pass
  12. Audio: English AC3 5.1 @448
  13. Sample: yes included
  14. http://www.imdb.com/title/tt2244901/
  15. General
  16. Complete name : I.Give.It.a.Year.2013.R5.DVDRip.XVID.AC3.HQ.Hive-CM8.avi
  17. Format : AVI
  18. Format/Info : Audio Video Interleave
  19. File size : 1.34 GiB
  20. Duration : 1h 33mn
  21. Overall bit rate : 2 057 Kbps
  22. Writing application : Nandub v1.0rc2
  23. Writing library : Nandub build 1853/release
  24. Video
  25. ID : 0
  26. Format : MPEG-4 Visual
  27. Format profile : Advanced Simple@L5
  28. Format settings, BVOP : 2
  29. Format settings, QPel : Yes
  30. Format settings, GMC : No warppoints
  31. Format settings, Matrix : Default (H.263)
  32. Muxing mode : Packed bitstream
  33. Codec ID : XVID
  34. Codec ID/Hint : XviD
  35. Duration : 1h 33mn
  36. Bit rate : 1 599 Kbps
  37. Width : 720 pixels
  38. Height : 304 pixels
  39. Display aspect ratio : 2.35:1
  40. Frame rate : 25.000 fps
  41. Color space : YUV
  42. Chroma subsampling : 4:2:0
  43. Bit depth : 8 bits
  44. Scan type : Progressive
  45. Compression mode : Lossy
  46. Bits/(Pixel*Frame) : 0.292
  47. Stream size : 1.04 GiB (78%)
  48. Writing library : XviD 1.2.1 (UTC 2008-12-04)
  49. Audio
  50. ID : 1
  51. Format : AC-3
  52. Format/Info : Audio Coding 3
  53. Mode extension : CM (complete main)
  54. Format settings, Endianness : Big
  55. Codec ID : 2000
  56. Duration : 1h 33mn
  57. Bit rate mode : Constant
  58. Bit rate : 448 Kbps
  59. Channel(s) : 6 channels
  60. Channel positions : Front: L C R, Side: L R, LFE
  61. Sampling rate : 48.0 KHz
  62. Bit depth : 16 bits
  63. Compression mode : Lossy
  64. Stream size : 299 MiB (22%)
  65. Alignment : Split accross interleaves
  66. Interleave, duration : 40 ms (1.00 video frame)
  67. Interleave, preload duration : 500 ms
  68. Plot:
  69. A look at the trials and tribulations of a newlywed couple during their first year of marriage.
  70. Cast:
  71. Rose Byrne ... Nat
  72. Minnie Driver ... Naomi
  73. Simon Baker ... Guy
  74. Rafe Spall ... Josh
  75. Alex Macqueen ... Minister
  76. Stephen Merchant ... Danny
  77. [img]http://img526.imageshack.us/img526/9049/igigigig.png[/img]
  78. [img]http://img837.imageshack.us/img837/8282/igigigigig.png[/img]
  79. [img]http://img442.imageshack.us/img442/3457/igigig.png[/img]
  80. [img]http://img5.imageshack.us/img5/9492/igigigigigig.png[/img]
  81. [img]http://img189.imageshack.us/img189/8127/25778343.png[/img]
  82. [video=http://www.youtube.com/watch?v=Od8DhL1hyfw]
  83. Greetz
  84. LTFS,ViSiON,SPK,SceneLovers,PRESTiGE,SANTi,3LT0N,YanKeeS,COPYxRIGHT,THC,T0XiC
  85. D2U,LKRG,ADTRG,Feel-Free,KoDeKinG,FLAWL3SS,WBZ,BHRG,26K,NOVA,MAGNET
  86. Unevano,BigVik,Rapeseed,SAFC,goldadvance,KaN1vE,Pinnz,Wayne,HiGH
  87. SeeN,jtr,Limey,ICONiK,4PlayHD,THEDEN-RG,eXceSs,AKS74u,TED
  88. Mr Hive,rkofan,and most P2P groups
  89. Great Work Guys :D
  90. LOOKING FOR ANYTHING YOU WANT TO LOOK AND SOUND BETTER
  91. [email protected]
Comments powered by Disqus