1. File size : 1.83 GiB
  2. Duration : 2h 4mn
  3. Overall bit rate : 2 107 Kbps
  4. Video
  5. ID : 0
  6. Format : MPEG-4 Visual
  7. Format profile : Advanced Simple@L5
  8. Format settings, BVOP : 2
  9. Format settings, QPel : No
  10. Format settings, GMC : No warppoints
  11. Format settings, Matrix : Default (H.263)
  12. Codec ID : XVID
  13. Codec ID/Hint : XviD
  14. Duration : 2h 4mn
  15. Bit rate : 1 716 Kbps
  16. Width : 704 pixels
  17. Height : 288 pixels
  18. Display aspect ratio : 2.40:1
  19. Frame rate : 25.000 fps
  20. Color space : YUV
  21. Chroma subsampling : 4:2:0
  22. Bit depth : 8 bits
  23. Scan type : Progressive
  24. Compression mode : Lossy
  25. Bits/(Pixel*Frame) : 0.338
  26. Stream size : 1.49 GiB (81%)
  27. Writing library : XviD 1.2.1 (UTC 2008-12-04)
  28. Audio
  29. ID : 1
  30. Format : AC-3
  31. Format/Info : Audio Coding 3
  32. Mode extension : CM (complete main)
  33. Format settings, Endianness : Big
  34. Codec ID : 2000
  35. Duration : 2h 4mn
  36. Bit rate mode : Constant
  37. Bit rate : 384 Kbps
  38. Channel(s) : 6 channels
  39. Channel positions : Front: L C R, Side: L R, LFE
  40. Sampling rate : 48.0 KHz
  41. Bit depth : 16 bits
  42. Compression mode : Lossy
  43. Stream size : 342 MiB (18%)
  44. Alignment : Aligned on interleaves
  45. Interleave, duration : 64 ms (1.60 video frames)
  46. Interleave, preload duration : 192 ms
  47. Title : VTS_01_1 T80 3_2ch 384Kbps DELAY 0ms_new
  48. IMDBhttp://www.imdb.com/title/tt1781769/
  49. Source PAL -BHRG
  50. Sample Enclosed
  51. Subs Index Folder{multi}
Comments powered by Disqus