1. ͻ
  2. ::: ::: ::::: ::: ::: ::::: ::: ::: ::: :::::
  3. ::: ::: :::::::::: ::: ::::::: ::::: ::: ::: :::::::
  4. ::: ::::::::::::::::::::::::::: ::: ::: ::: ::: :::::::::
  5. ::: ::: :::::::::::: :::::: ::: ::: ::: ::: ::::::
  6. ::: ::: ::: :::::::::: ::: ::: ::: ::: ::: ::: ::: :::
  7. ::: ::: ::: ::::::::: ::: ::: ::: ::: ::: : ::: ::: :::
  8. ::: ::: ::: :::::::::: ::: ::: ::: ::: ::: ::: ::: ::: :::
  9. ::: ::: ::: :::::::::::: ::: ::: ::: ::: : : ::: ::: :::
  10. :::..::: ::: :::::: :::::: ::: ::: ::: ::::: ::::: ::: :::
  11. ::::::::: :::::: :::::: ::: ::::: ::::: ::::: ::: :::
  12. :::: ::: :::::: :::::: ::: ::: :::: :::: ::: :::
  13. ͹
  14. NOTES
  15. NOTES
  16. Encoded By .......:UnKnOwN
  17. Runtime ..........:1:26
  18. IMDb URL .........:http://www.imdb.com/title/tt2456594/
  19. Language .........:English
  20. File Size ........:1.2gb
  21. Release Date ......... 2012
  22. Source ......... Your gf as always
  23. File Type ......... Single AVI
  24. PS3 Compatible ....... No one cares about your ps3
  25. Genre ......... Fantasy/
  26. Video
  27. ID : 0
  28. Format : MPEG-4 Visual
  29. Format profile : Advanced Simple@L5
  30. Format settings, BVOP : Yes
  31. Format settings, QPel : No
  32. Format settings, GMC : No warppoints
  33. Format settings, Matrix : Custom
  34. Codec ID : XVID
  35. Codec ID/Hint : XviD
  36. Duration : 1h 26mn
  37. Bit rate : 1080kbps
  38. Width : 680pixels
  39. Height : 386pixels
  40. Display aspect ratio : 1:85
  41. Frame rate : 29.000fps
  42. Color space : YUV
  43. Chroma subsampling : 4:2:0
  44. Bit depth : 8 bits
  45. Scan type : Progressive
  46. Bits/(Pixel*Frame) : 0.234
  47. Stream size : 892 MiB (86%)
  48. Writing library : XviD 1.2.1 (UTC 2008-12-04)
  49. Audio
  50. ID : 1
  51. Format : AC3
  52. Format/Info : MPEG
  53. Mode extension : CM (complete main)
  54. Codec ID : 2000
  55. Duration : 1h 26mn
  56. Bit rate mode : Constant
  57. Bit rate : 448kbps
  58. Channel(s) : 6channels
  59. Channel positions : Front: L C R, Side: L R, LFE
  60. Sampling rate : 48.0 KHz
  61. Bit depth : 16 bits
  62. Stream size : 302 MiB
  63. Alignment : Aligned on interleaves
  64. Interleave, duration : 42 ms (1.00 video frame)
  65. Interleave, preload duration : 512 ms
  66. SYNOPSIS
  67. In an age long ago, the last village of clever, peace-loving Hobbits is
  68. attacked and enslaved by the Java Men, komodo-worshiping, dragon-riding
  69. cannibals. Now the young Hobbit Goben, along with his father and sister,
  70. must seek help from the "giants" (human hunters) to find the Javas'
  71. lair and rescue the last surviving Hobbits
  72. RELEASE INFO
  73. Enjoy
  74. ͼ
  75. ͻ Ļ ͻ
  76. μ ͼͼ μ
  77. LOOKING FOR
  78. Allow us to save you some time
  79. 1 For a minute there i thought this was the new hobbit in cinemas
  80. 2 This is not the hobbit misleading,got my hopes up
  81. 3 Is this the new hobbit out on dvd already?
  82. The popular hobbit stays internal wait for the 50 copies to be flooded
  83. λ
  84. ˼ GREETZ & RESPECT ˼
  85. ͼ
  86. EVERY FEMALE YOU KNOW
  87. MORE GOODIES COMING REAL SOON
  88. ͼ
Comments powered by Disqus