1. General
  2. Complete name : E:\I.Give.It.a.Year.2013.DVDRip.XviD-playXD\I.Give.It.a.Year.2013.DVDRip.XviD-playXD.avi
  3. Format : AVI
  4. Format/Info : Audio Video Interleave
  5. File size : 704 MiB
  6. Duration : 1h 33mn
  7. Overall bit rate : 1 053 Kbps
  8. Writing application : VirtualDubMod 1.5.10.2 (build 2540/release)
  9. Writing library : VirtualDubMod build 2540/release
  10. Video
  11. ID : 0
  12. Format : MPEG-4 Visual
  13. Format profile : Advanced Simple@L5
  14. Format settings, BVOP : 3
  15. Format settings, QPel : Yes
  16. Format settings, GMC : No warppoints
  17. Format settings, Matrix : Default (H.263)
  18. Codec ID : XVID
  19. Codec ID/Hint : XviD
  20. Duration : 1h 33mn
  21. Bit rate : 916 Kbps
  22. Width : 640 pixels
  23. Height : 272 pixels
  24. Display aspect ratio : 2.35:1
  25. Frame rate : 25.000 fps
  26. Color space : YUV
  27. Chroma subsampling : 4:2:0
  28. Bit depth : 8 bits
  29. Scan type : Progressive
  30. Compression mode : Lossy
  31. Bits/(Pixel*Frame) : 0.210
  32. Stream size : 612 MiB (87%)
  33. Writing library : XviD 1.2.1 (UTC 2008-12-04)
  34. Audio
  35. ID : 1
  36. Format : MPEG Audio
  37. Format version : Version 1
  38. Format profile : Layer 3
  39. Mode : Joint stereo
  40. Codec ID : 55
  41. Codec ID/Hint : MP3
  42. Duration : 1h 33mn
  43. Bit rate mode : Constant
  44. Bit rate : 128 Kbps
  45. Channel(s) : 2 channels
  46. Sampling rate : 48.0 KHz
  47. Compression mode : Lossy
  48. Stream size : 85.5 MiB (12%)
  49. Alignment : Aligned on interleaves
  50. Interleave, duration : 40 ms (1.00 video frame)
  51. Interleave, preload duration : 504 ms
Comments powered by Disqus