1. [img]http://hiddenclub.net/upload/big/2012/12/01/50ba7f9f1a67a.jpg[/img]
  2. Genre:Action | Comedy | Crime
  3. Language:English
  4. IMDb:http://www.imdb.com/title/tt1836944/
  5. Source:DvD Thanks
  6. Encoder:Tony
  7. Format : AVI
  8. Format/Info : Audio Video Interleave
  9. File size : 1.45 GiB
  10. Duration : 1h 34mn
  11. Overall bit rate : 2 201 Kbps
  12. Video
  13. ID : 0
  14. Format : MPEG-4 Visual
  15. Format profile : Advanced Simple@L5
  16. Format settings, BVOP : 1
  17. Format settings, QPel : No
  18. Format settings, GMC : No warppoints
  19. Format settings, Matrix : Default (H.263)
  20. Codec ID : XVID
  21. Codec ID/Hint : XviD
  22. Duration : 1h 34mn
  23. Bit rate : 1 807 Kbps
  24. Width : 640 pixels
  25. Height : 272 pixels
  26. Display aspect ratio : 2.35:1
  27. Frame rate : 25.000 fps
  28. Color space : YUV
  29. Chroma subsampling : 4:2:0
  30. Bit depth : 8 bits
  31. Scan type : Progressive
  32. Compression mode : Lossy
  33. Bits/(Pixel*Frame) : 0.415
  34. Stream size : 1.19 GiB (82%)
  35. Writing library : XviD 1.2.1 (UTC 2008-12-04)
  36. Audio
  37. ID : 1
  38. Format : AC-3
  39. Format/Info : Audio Coding 3
  40. Mode extension : CM (complete main)
  41. Codec ID : 2000
  42. Duration : 1h 34mn
  43. Bit rate mode : Constant
  44. Bit rate : 384 Kbps
  45. Channel(s) : 6 channels
  46. Channel positions : Front: L C R, Side: L R, LFE
  47. Sampling rate : 48.0 KHz
  48. Bit depth : 16 bits
  49. Compression mode : Lossy
  50. Stream size : 260 MiB (17%)
  51. Alignment : Aligned on interleaves
  52. Interleave, duration : 40 ms (1.00 video frame)
  53. Interleave, preload duration : 512 ms
  54. Plot:
  55. When three redneck brothers agree to help a woman save her son from an abusive father, they become targets on the run from an odd cast of characters.
  56. TRAILER:http://www.youtube.com/watch?v=ISAghgNa1yg
  57. Greets:
  58. CRYS,INSPiRAL,IMAGINE,LKRG,ADTRG,FXG,3Li,FLAWL3SS,CrEwSaDe,TA,iLLUSiON,EMBER,HOPE,GooN,BBnRG,NOGRP,ETRG,BHRG,iLLUMiNATi,MiSTERE.ViSiON,DTRG SAFCuk009,LU,TheFalcon007,MYSTiC,PrisM,Noir,WBZ,LAP,Rx,Kingdom,SAFCuk009+Fabreezy,HDLiTE,TWiZTED,ETRG.ELEKTRI4KA,MAGNAT,CM8
  59. And to all the other p2p grps past and present
Comments powered by Disqus