1. [pre]
  2. db d888888b d888b db db d888888b
  3. 88 `88' 88' Y8b 88 88 `~~88~~'
  4. 88 88 88 88ooo88 88
  5. 88 88 88 ooo 88~~~88 88
  6. 88booo. .88. 88. ~8~ 88 88 88
  7. Y88888P Y888888P Y888P YP YP YP
  8. [IMG]http://i.imgur.com/62cIB.jpg[/IMG]
  9. [code]
  10. Playing.for.Keeps.2012.CAM.XVID-LIGHT
  11. http://www.imdb.com/title/tt1540128/
  12. Plot:
  13. A former sports star who's fallen on hard times starts coaching his son's soccer team as a way to get his life together. His attempts to become an adult are met with challenges from the attractive soccer moms who pursue him at every turn.
  14. Sources - Audio-VOB....Thanks :P
  15. VIDEO-VOB.....Thanks :P
  16. Subs-NO....
  17. Video
  18. ID : 0
  19. Format : MPEG-4 Visual
  20. Format profile : Advanced Simple@L5
  21. Format settings, BVOP : 2
  22. Format settings, QPel : No
  23. Format settings, GMC : No warppoints
  24. Format settings, Matrix : Default (H.263)
  25. Muxing mode : Packed bitstream
  26. Codec ID : XVID
  27. Codec ID/Hint : XviD
  28. Duration : 1h 36mn
  29. Bit rate : 1 344 Kbps
  30. Width : 720 pixels
  31. Height : 304 pixels
  32. Display aspect ratio : 2.35:1
  33. Frame rate : 29.970 fps
  34. Color space : YUV
  35. Chroma subsampling : 4:2:0
  36. Bit depth : 8 bits
  37. Scan type : Progressive
  38. Compression mode : Lossy
  39. Bits/(Pixel*Frame) : 0.205
  40. Stream size : 927 MiB (85%)
  41. Writing library : XviD 64
  42. Audio
  43. ID : 1
  44. Format : MPEG Audio
  45. Format version : Version 1
  46. Format profile : Layer 3
  47. Mode : Joint stereo
  48. Mode extension : MS Stereo
  49. Codec ID : 55
  50. Codec ID/Hint : MP3
  51. Duration : 1h 36mn
  52. Bit rate mode : Constant
  53. Bit rate : 224 Kbps
  54. Channel(s) : 2 channels
  55. Sampling rate : 44.1 KHz
  56. Compression mode : Lossy
  57. Stream size : 155 MiB (14%)
  58. Alignment : Split accross interleaves
  59. Interleave, duration : 9351 ms (280.24 video frames)
  60. Writing library : LAME3.99r
  61. Encoding settings : -m j -V 4 -q 3 -lowpass 19.4 -b 224
  62. Notes -
  63. cropped, filtered,audio cleaned up..not bad for a first cam !
  64. [/code]
  65. Screens:
  66. [IMG]http://i.imgur.com/w67cW.png[/IMG]
  67. [IMG]http://i.imgur.com/a1mAu.png[/IMG]
  68. [IMG]http://i.imgur.com/9z4FL.png[/IMG]
  69. [IMG]http://i.imgur.com/ZF6JB.png[/IMG]
  70. [IMG]http://i.imgur.com/pWus9.png[/IMG]
  71. [IMG]http://i.imgur.com/NFT3m.png[/IMG]
  72. [IMG]http://i.imgur.com/wuTpG.png[/IMG]
  73. [IMG]http://i.imgur.com/fk24s.png[/IMG]
  74. [IMG]http://i.imgur.com/QgaPs.png[/IMG]
  75. [IMG]http://i.imgur.com/mHht0.png[/IMG]
  76. Greetz:
  77. 26K
  78. Anything to offer email @: [email protected]
  79. feel free join our server to get more goodies ;)
  80. [/pre]
Comments powered by Disqus