1. ## ## #### ## ## ######## ###### ## ## #######
  2. ## ## ## ## ## ## ## ## ### ### ## ##
  3. ## ## ## ## ## ## ## #### #### ## ##
  4. ######### ## ## ## ###### ####### ## ## ### ## #######
  5. ## ## ## ## ## ## ## ## ## ## ##
  6. ## ## ## ## ## ## ## ## ## ## ## ##
  7. ## ## #### ### ######## ###### ## ## #######
  8. ########### Thx Hive - CM8 Doing It Right The First Time ###########
  9. [IMG]http://img833.imageshack.us/img833/6919/hideaway.jpg[/IMG]
  10. Hideaways.2011.BDRip.XVID.AC3.HQ.Hive-CM8
  11. Source: Bluray
  12. Video.: 720x304 @bitrate 1700 2pass
  13. Audio.: English DTS to AC3 5.1 @448
  14. Sample: Yes, included
  15. http://www.imdb.com/title/tt1692098/
  16. General
  17. Complete name : Hideaways.2011.BDRip.XVID.AC3.HQ.Hive-CM8.avi
  18. Format : AVI
  19. Format/Info : Audio Video Interleave
  20. File size : 1.40 GiB
  21. Duration : 1h 32mn
  22. Overall bit rate : 2 157 Kbps
  23. Writing application : Nandub v1.0rc2
  24. Writing library : Nandub build 1853/release
  25. Video
  26. ID : 0
  27. Format : MPEG-4 Visual
  28. Format profile : Advanced Simple@L5
  29. Format settings, BVOP : 1
  30. Format settings, QPel : Yes
  31. Format settings, GMC : No warppoints
  32. Format settings, Matrix : Default (H.263)
  33. Muxing mode : Packed bitstream
  34. Codec ID : XVID
  35. Codec ID/Hint : XviD
  36. Duration : 1h 32mn
  37. Bit rate : 1 700 Kbps
  38. Width : 720 pixels
  39. Height : 304 pixels
  40. Display aspect ratio : 2.35:1
  41. Frame rate : 23.976 fps
  42. Color space : YUV
  43. Chroma subsampling : 4:2:0
  44. Bit depth : 8 bits
  45. Scan type : Progressive
  46. Compression mode : Lossy
  47. Bits/(Pixel*Frame) : 0.324
  48. Stream size : 1.10 GiB (79%)
  49. Writing library : XviD 1.2.1 (UTC 2008-12-04)
  50. Audio
  51. ID : 1
  52. Format : AC-3
  53. Format/Info : Audio Coding 3
  54. Mode extension : CM (complete main)
  55. Format settings, Endianness : Big
  56. Codec ID : 2000
  57. Duration : 1h 32mn
  58. Bit rate mode : Constant
  59. Bit rate : 448 Kbps
  60. Channel(s) : 6 channels
  61. Channel positions : Front: L C R, Side: L R, LFE
  62. Sampling rate : 48.0 KHz
  63. Bit depth : 16 bits
  64. Compression mode : Lossy
  65. Stream size : 297 MiB (21%)
  66. Alignment : Split accross interleaves
  67. Interleave, duration : 42 ms (1.00 video frame)
  68. Interleave, preload duration : 500 ms
  69. PLOT
  70. James Furlong is the last in a long line of Furlongs who were each blessed or cursed with
  71. a strange ability. James is eventually isolated in a forest to avoid hurting his family
  72. and decides to live there. A few years later, a girl named Mae, takes refuge in the
  73. same forest because of an incurable disease.
  74. CAST
  75. Harry Treadaway ... James Furlong
  76. Rachel Hurd-Wood ... Mae-West O'Mara
  77. Thomas Brodie-Sangster ... Liam
  78. [img]http://img210.imageshack.us/img210/903/53609956.png[/img]
  79. [img]http://img844.imageshack.us/img844/6926/hihibm.png[/img]
  80. [img]http://img28.imageshack.us/img28/3317/hihihhhiii.png[/img]
  81. [img]http://img5.imageshack.us/img5/8228/hihihhii.png[/img]
  82. [img]http://img528.imageshack.us/img528/913/hihihik.png[/img]
  83. [video=http://www.youtube.com/watch?v=1uRFW3mQulo]
  84. GREETZ
  85. ViSiON,SPK,SceneLovers,PRESTiGE,SANTi,3LT0N,YanKeeS,COPYxRIGHT,THC,T0XiC
  86. D2U,LKRG,ADTRG,Feel-Free,KoDeKinG,FLAWL3SS,WBZ,BHRG,26K,NOVA,MAGNET
  87. Unevano,BigVik,Rapeseed,SAFC,goldadvance,KaN1vE,Pinnz,Wayne,TED
  88. SeeN,jtr,Limey,ICONiK,4PlayHD,THEDEN-RG,eXceSs,AKS74u,HiGH
  89. Mr Hive,and most P2P groups
  90. Great Work Guys!
  91. LOOKING FOR ANYTHING YOU WANT TO LOOK AND SOUND BETTER
  92. [email protected]
Comments powered by Disqus