1. Format : AVI
  2. Format/Info : Audio Video Interleave
  3. File size : 1.39 GiB
  4. Duration : 1h 26mn
  5. Overall bit rate : 2 318 Kbps
  6. Writing application : VirtualDubMod 1.5.10.3 | www.virtualdub-fr.org || (build 2550/release)
  7. Writing library : VirtualDubMod build 2550/release
  8. Video
  9. ID : 0
  10. Format : MPEG-4 Visual
  11. Format profile : Advanced Simple@L5
  12. Format settings, BVOP : 2
  13. Format settings, QPel : No
  14. Format settings, GMC : No warppoints
  15. Format settings, Matrix : Default (H.263)
  16. Muxing mode : Packed bitstream
  17. Codec ID : XVID
  18. Codec ID/Hint : XviD
  19. Duration : 1h 26mn
  20. Bit rate : 2 114 Kbps
  21. Width : 682 pixels
  22. Height : 284 pixels
  23. Display aspect ratio : 2.40:1
  24. Frame rate : 29.970 fps
  25. Color space : YUV
  26. Chroma subsampling : 4:2:0
  27. Bit depth : 8 bits
  28. Scan type : Progressive
  29. Compression mode : Lossy
  30. Bits/(Pixel*Frame) : 0.364
  31. Stream size : 1.27 GiB (91%)
  32. Writing library : XviD 64
  33. Audio
  34. ID : 1
  35. Format : AC-3
  36. Format/Info : Audio Coding 3
  37. Mode extension : CM (complete main)
  38. Codec ID : 2000
  39. Duration : 1h 26mn
  40. Bit rate mode : Constant
  41. Bit rate : 192 Kbps
  42. Channel(s) : 2 channels
  43. Channel positions : Front: L R
  44. Sampling rate : 48.0 KHz
  45. Bit depth : 16 bits
  46. Compression mode : Lossy
  47. Stream size : 118 MiB (8%)
  48. Alignment : Aligned on interleaves
  49. Interleave, duration : 33 ms (1.00 video frame)
  50. Interleave, preload duration : 512 ms
  51. Sources: HP - Thx
  52. Plot:After the first massacre in 1974, the townspeople suspected that the Sawyer family were responsible. A vigilante mob of enraged locals surrounded the Sawyer house, burning it to the ground and killing every last member of the family. Decades later a young woman named Heather learns that she has inherited a Texas estate from her grandmother. she decides to bring her friends along on the road trip to invesitgate her inheritance. On arrival she uncovers she has inherited a mansion but is yet to uncover the terrors that lurk in the basement below it.
  53. www.imdb.com/title/tt1572315/
  54. The Texas Chainsaw Massacre 3D
  55. Texas Chainsaw 3D is a 2013 American slasher film directed by John Luessenhop and written by Debra Sullivan and Adam Marcus. Wikipedia
  56. Release date: January 3, 2013 (initial release)
  57. Director: John Luessenhop
  58. Running time: 95 minutes
  59. Cinematography: Anastas N. Michos
  60. Screenplay: Stephen Susco, Adam Marcus, Kim Henkel, Kirsten Elms, Debra Sullivan
  61. Respect Noone
Comments powered by Disqus