1. ( ___ )|\ /|( ____ \( __ \
  2. | ( ) |( \ / )| ( \/| ( \ )
  3. | (___) | \ (_) / | (__ | | ) |
  4. | ___ | ) _ ( | __) | | | |
  5. | ( ) | / ( ) \ | ( | | ) |
  6. | ) ( |( / \ )| (____/\| (__/ )
  7. |/ \||/ \|(_______/(______/
  8. _ _ _ _ _ _ _ _
  9. / \ / \ / \ / \ / \ / \ / \ / \
  10. ( p )( r )( e )( s )( e )( n )( t )( s )
  11. \_/ \_/ \_/ \_/ \_/ \_/ \_/ \_/
  12. The.Hot.Flashes.2013.DVDRiP.AC3-5.1.XviD-AXED
  13. POSTER:
  14. [IMG]http://img33.imageshack.us/img33/8435/6ofe.jpg[/IMG]
  15. IMDB:
  16. http://www.imdb.com/title/tt2201251
  17. PLOT INFO:
  18. An unlikely basketball team of unappreciated middle-aged Texas women, all former high school champs, challenge the current arrogant high school girls' state champs to a series of games to ...
  19. Media Info:
  20. General
  21. Complete name : The.Hot.Flashes.2013.DVDRiP.AC3-5.1.XviD-AXED.avi
  22. Format : AVI
  23. Format/Info : Audio Video Interleave
  24. File size : 1.37 GiB
  25. Duration : 1h 39mn
  26. Overall bit rate : 1 966 Kbps
  27. Video
  28. ID : 0
  29. Format : MPEG-4 Visual
  30. Format profile : Advanced Simple@L5
  31. Format settings, BVOP : 2
  32. Format settings, QPel : No
  33. Format settings, GMC : No warppoints
  34. Format settings, Matrix : Default (H.263)
  35. Muxing mode : Packed bitstream
  36. Codec ID : XVID
  37. Codec ID/Hint : XviD
  38. Duration : 1h 39mn
  39. Bit rate : 1 510 Kbps
  40. Width : 720 pixels
  41. Height : 384 pixels
  42. Display aspect ratio : 1.85:1
  43. Frame rate : 23.976 fps
  44. Color space : YUV
  45. Chroma subsampling : 4:2:0
  46. Bit depth : 8 bits
  47. Scan type : Progressive
  48. Compression mode : Lossy
  49. Bits/(Pixel*Frame) : 0.228
  50. Stream size : 1.05 GiB (77%)
  51. Writing library : XviD 64
  52. Audio
  53. ID : 1
  54. Format : AC-3
  55. Format/Info : Audio Coding 3
  56. Mode extension : CM (complete main)
  57. Format settings, Endianness : Big
  58. Codec ID : 2000
  59. Duration : 1h 39mn
  60. Bit rate mode : Constant
  61. Bit rate : 448 Kbps
  62. Channel(s) : 6 channels
  63. Channel positions : Front: L C R, Side: L R, LFE
  64. Sampling rate : 48.0 KHz
  65. Bit depth : 16 bits
  66. Compression mode : Lossy
  67. Stream size : 319 MiB (23%)
  68. Alignment : Aligned on interleaves
  69. Interleave, duration : 64 ms (1.53 video frames)
  70. Interleave, preload duration : 192 ms
  71. Title : 3_2ch 448Kbps DELAY 0ms
  72. SOURCE:
  73. Retail R1 NTSC DVD
  74. NOTES:
  75. A new comedy starring Brooke Shields, Wanda Sykes and Eric Roberts that retails next week.
  76. AXED! Still kicking ass but we stopped taking names.
  77. SCREENS:
  78. [IMG]http://imageshack.us/a/img838/4228/bqq5.png[/IMG]
  79. [IMG]http://imageshack.us/a/img202/4442/x65x.png[/IMG]
  80. [IMG]http://imageshack.us/a/img43/4210/69j6.png[/IMG]
  81. [IMG]http://imageshack.us/a/img41/7027/cw0n.png[/IMG]
  82. [IMG]http://imageshack.us/a/img89/458/p70u.png[/IMG]
  83. [video=http://www.youtube.com/watch?v=V8hjDrVPOJ4]
Comments powered by Disqus