1. Sinister.2012.REAL.R5.DVDRip.XViD.AC3-5.1.HQ.Hive-CM8
  2. SOURCES
  3. Video.: Russian DVD-R
  4. Audio.: Unique - JiiNX thx for another great line
  5. ......: and the Russian 5.1 Audiotrack
  6. ViDEO ENCODE
  7. DVD had good quality, just the usual all reddish but easy fixable.
  8. fixed the colours, added some brightness and sharpness and denoise
  9. AUDiO ENCODE
  10. The dvd didnt have studio audio so used the best line around from JiiNX
  11. I filtered and cleaned it for 2h an synced it back to my video, took me
  12. 20 cuts to get all lipsync and entered it back into the russian 5.1 track.
  13. sounds very nice now and all scary effects are inside now too,
  14. will give you the extra scary kick and will do me till bluray.
  15. btw, removed the russian narrator voice from the endcredits...
  16. hate when its still left inside.
  17. Video.: 720x304 @bitrate 1700 2pass
  18. Audio.: English AC3 5.1 @448
  19. Sample: Yes, included
  20. NOTES
  21. finally after 4 days the real dvd-r showed up, so this
  22. is the first version thats not from the avi of an avi.
  23. got very nice
  24. enjoy
  25. http://www.imdb.com/title/tt1922777/
  26. General
  27. Complete name : Sinister.2012.REAL.R5.DVDRip.XViD.AC3-5.1.HQ.Hive-CM8.avi
  28. Format : AVI
  29. Format/Info : Audio Video Interleave
  30. File size : 1.58 GiB
  31. Duration : 1h 45mn
  32. Overall bit rate : 2 157 Kbps
  33. Writing application : Nandub v1.0rc2
  34. Writing library : Nandub build 1853/release
  35. Video
  36. ID : 0
  37. Format : MPEG-4 Visual
  38. Format profile : Advanced Simple@L5
  39. Format settings, BVOP : 2
  40. Format settings, QPel : Yes
  41. Format settings, GMC : No warppoints
  42. Format settings, Matrix : Default (H.263)
  43. Muxing mode : Packed bitstream
  44. Codec ID : XVID
  45. Codec ID/Hint : XviD
  46. Duration : 1h 45mn
  47. Bit rate : 1 700 Kbps
  48. Width : 720 pixels
  49. Height : 304 pixels
  50. Display aspect ratio : 2.35:1
  51. Frame rate : 25.000 fps
  52. Color space : YUV
  53. Chroma subsampling : 4:2:0
  54. Bit depth : 8 bits
  55. Scan type : Progressive
  56. Compression mode : Lossy
  57. Bits/(Pixel*Frame) : 0.311
  58. Stream size : 1.25 GiB (79%)
  59. Writing library : XviD 1.2.1 (UTC 2008-12-04)
  60. Audio
  61. ID : 1
  62. Format : AC-3
  63. Format/Info : Audio Coding 3
  64. Mode extension : CM (complete main)
  65. Format settings, Endianness : Big
  66. Codec ID : 2000
  67. Duration : 1h 45mn
  68. Bit rate mode : Constant
  69. Bit rate : 448 Kbps
  70. Channel(s) : 6 channels
  71. Channel positions : Front: L C R, Side: L R, LFE
  72. Sampling rate : 48.0 KHz
  73. Bit depth : 16 bits
  74. Compression mode : Lossy
  75. Stream size : 337 MiB (21%)
  76. Alignment : Split accross interleaves
  77. Interleave, duration : 40 ms (1.00 video frame)
  78. Interleave, preload duration : 500 ms
  79. PLOT
  80. A true-crime writer finds a cache of 8mm 'snuff' films that suggest the
  81. murder he is currently researching is the work of a serial killer whose
  82. career dates back to the 1960s.
  83. CAST
  84. Ethan Hawke ... Ellison Oswalt
  85. Juliet Rylance ... Tracy
  86. James Ransone ... Deputy
Comments powered by Disqus