1. ## ## #### ## ## ######## ###### ## ## #######
  2. ## ## ## ## ## ## ## ## ### ### ## ##
  3. ## ## ## ## ## ## ## #### #### ## ##
  4. ######### ## ## ## ###### ####### ## ## ### ## #######
  5. ## ## ## ## ## ## ## ## ## ## ##
  6. ## ## ## ## ## ## ## ## ## ## ## ##
  7. ## ## #### ### ######## ###### ## ## #######
  8. ########### Thx Hive - CM8 Doing It Right The First Time ###########
  9. [IMG]http://img507.imageshack.us/img507/5804/lionq.jpg[/IMG]
  10. Richard.The.Lionheart.2013.DVDRip.XVID.AC3.HQ.Hive-CM8
  11. Source: DVD-R PAL
  12. Video.: 720x304 @bitrate 1400 2pass
  13. Audio.: English AC3 5.1 @448
  14. Sample: Yes, included
  15. IMDb..: http://www.imdb.com/title/tt1381404/
  16. ENCODE
  17. got this nice dvd, hasnt been done yet,
  18. movie is perhaps not for everyone, suggest you check trailer first.
  19. quality was ok, first 5 mins of the movie are historical and have a
  20. weird aspect, same as on dvd. brightness and colours moved around in
  21. the movie so left it untouched, only added sharpness and denoise.
  22. lowered bitrate to get a reasonable size.
  23. still got nice
  24. enjoy
  25. General
  26. Complete name : Richard.The.Lionheart.2013.DVDRip.XVID.AC3.HQ.Hive-CM8.avi
  27. Format : AVI
  28. Format/Info : Audio Video Interleave
  29. File size : 1.30 GiB
  30. Duration : 1h 39mn
  31. Overall bit rate : 1 857 Kbps
  32. Writing application : Nandub v1.0rc2
  33. Writing library : Nandub build 1853/release
  34. Video
  35. ID : 0
  36. Format : MPEG-4 Visual
  37. Format profile : Advanced Simple@L5
  38. Format settings, BVOP : 2
  39. Format settings, QPel : Yes
  40. Format settings, GMC : No warppoints
  41. Format settings, Matrix : Default (H.263)
  42. Muxing mode : Packed bitstream
  43. Codec ID : XVID
  44. Codec ID/Hint : XviD
  45. Duration : 1h 39mn
  46. Bit rate : 1 400 Kbps
  47. Width : 720 pixels
  48. Height : 304 pixels
  49. Display aspect ratio : 2.35:1
  50. Frame rate : 25.000 fps
  51. Color space : YUV
  52. Chroma subsampling : 4:2:0
  53. Bit depth : 8 bits
  54. Scan type : Progressive
  55. Compression mode : Lossy
  56. Bits/(Pixel*Frame) : 0.256
  57. Stream size : 1 001 MiB (75%)
  58. Writing library : XviD 1.2.1 (UTC 2008-12-04)
  59. Audio
  60. ID : 1
  61. Format : AC-3
  62. Format/Info : Audio Coding 3
  63. Mode extension : CM (complete main)
  64. Format settings, Endianness : Big
  65. Codec ID : 2000
  66. Duration : 1h 39mn
  67. Bit rate mode : Constant
  68. Bit rate : 448 Kbps
  69. Channel(s) : 6 channels
  70. Channel positions : Front: L C R, Side: L R, LFE
  71. Sampling rate : 48.0 KHz
  72. Bit depth : 16 bits
  73. Compression mode : Lossy
  74. Stream size : 320 MiB (24%)
  75. Alignment : Split accross interleaves
  76. Interleave, duration : 40 ms (1.00 video frame)
  77. Interleave, preload duration : 500 ms
  78. PLOT
  79. King Henry II tests the loyalty and honor of his son Richard sending him
  80. to a secret castle known as the Knight's Martyr. There, the Prince must
  81. fight against adversaries representing the virtues of a knight.
  82. CAST
  83. Malcolm McDowell ... King Henry II
  84. Stewart Arnold ... Selector
  85. Veronica Calilli ... Celtic Goddess
  86. [img]http://img571.imageshack.us/img571/3175/rirrii.png[/img]
  87. [img]http://img195.imageshack.us/img195/3833/rirriiri.png[/img]
  88. [img]http://img21.imageshack.us/img21/8420/rirriiriri.png[/img]
  89. [img]http://img708.imageshack.us/img708/3632/rirriiririri.png[/img]
  90. [img]http://img51.imageshack.us/img51/2724/93559691.png[/img]
  91. [video=http://www.youtube.com/watch?v=_ETipG0N7fQ]
  92. MANY THANKS
  93. stallone (jase)
  94. GREETZ
  95. ViSiON,SPK,SceneLovers,PRESTiGE,SANTi,3LT0N,YanKeeS,COPYxRIGHT,THC,T0XiC
  96. D2U,LKRG,ADTRG,Feel-Free,KoDeKinG,FLAWL3SS,WBZ,BHRG,26K,NOVA,MAGNET
  97. Unevano,BigVik,Rapeseed,SAFC,goldadvance,KaN1vE,Pinnz,Wayne,TED
  98. SeeN,jtr,Limey,ICONiK,4PlayHD,THEDEN-RG,eXceSs,AKS74u,HiGH
  99. Mr Hive,trepario,stallone,and most P2P groups
  100. Great Work Guys!
  101. LOOKING FOR ANYTHING YOU WANT TO LOOK AND SOUND BETTER
  102. [email protected]
Comments powered by Disqus