1. The Wee Man 2013 Dvdrip Xvid-OlFa
  2. Video: 720x304 Xvid @ 1680kbps
  3. Audio: English AC3 2.0 *see note below
  4. Subs: none
  5. IMDB: www.imdb.com/title/tt2113809/
  6. Plot: The life story of the rise to power of Glasgow gangster Paul Ferris.
  7. Genre: Drama
  8. Stars: Patrick Bergin, Hannah Blamires, Steven Borrie
  9. Format : AVI
  10. Format/Info : Audio Video Interleave
  11. File size : 1.39 GiB
  12. Duration : 1h 45mn
  13. Overall bit rate : 1 882 Kbps
  14. Writing application : VirtualDubMod 1.5.4.1 (build 2178/release)
  15. Writing library : VirtualDubMod build 2178/release
  16. Video
  17. ID : 0
  18. Format : MPEG-4 Visual
  19. Format profile : Simple@L3
  20. Format settings, BVOP : No
  21. Format settings, QPel : No
  22. Format settings, GMC : No warppoints
  23. Format settings, Matrix : Default (H.263)
  24. Codec ID : XVID
  25. Codec ID/Hint : XviD
  26. Duration : 1h 45mn
  27. Bit rate : 1 682 Kbps
  28. Width : 720 pixels
  29. Height : 304 pixels
  30. Display aspect ratio : 2.35:1
  31. Frame rate : 25.000 fps
  32. Color space : YUV
  33. Chroma subsampling : 4:2:0
  34. Bit depth : 8 bits
  35. Scan type : Progressive
  36. Compression mode : Lossy
  37. Bits/(Pixel*Frame) : 0.307
  38. Stream size : 1.24 GiB (89%)
  39. Writing library : XviD 1.2.0.dev47 (UTC 2006-11-01)
  40. Audio
  41. ID : 1
  42. Format : AC-3
  43. Format/Info : Audio Coding 3
  44. Mode extension : CM (complete main)
  45. Format settings, Endianness : Big
  46. Codec ID : 2000
  47. Duration : 1h 45mn
  48. Bit rate mode : Constant
  49. Bit rate : 192 Kbps
  50. Channel(s) : 2 channels
  51. Channel positions : Front: L R
  52. Sampling rate : 48.0 KHz
  53. Bit depth : 16 bits
  54. Compression mode : Lossy
  55. Delay relative to video : 12ms
  56. Stream size : 145 MiB (10%)
  57. Alignment : Split accross interleaves
  58. Interleave, duration : 80 ms (2.00 video frames)
  59. Interleave, preload duration : 500 ms
  60. Source: Euro PAL DVDR.
  61. *Note: Eng track on DVDr was only AC3 2.0 sorry
Comments powered by Disqus