1. ÜÛÛÛÛÛÛÛÛÛÛÛÛÛÛÛÛÛÛÛÛÛÛÛÛÛÛÛÛÛÛÛÛÛÛÛÛÛÛÛÛÛÛÛÛÛÛÛÛÛÛÛÛÛÛÛÛÛÛÛÛÛÛÛÛÛÛÛÛÛÛÛÛÛÛÛÛÛÛÛÛÛÛÛÛÛÛÛÛÛÛÜ
  2. ÛÛÛÛÛÛÛÛÛÛÛÛÛÛÛÛÛÛÛÛÛÛÛÛÛÛÛÛÛÛÛÛÛÛÛÛÛÛÛÛÛÛÛÛÛÛÛÛÛÛÛÛÛÛÛÛÛÛÛÛÛÛÛÛÛÛÛÛÛÛÛÛÛÛÛÛÛÛÛÛÛÛÛÛÛÛÛÛÛÛÛÛÛÛ
  3. ÛÛÛÛÛÛÛÛÛÛÛÛÛÛÛÛÛÛÛÛÛÛÛÛÛÛÛÛÛÛÛÛÛÛÛÛÛÛÛÛÛÛÛÛÛÛÛÛÛÛÛÛÛÛÛÛÛÛÛÛÛÛÛÛÛÛÛÛÛÛÛÛÛÛÛÛÛÛÛÛÛÛÛÛÛÛÛÛÛÛÛÛÛÛ
  4. Û ÜÜÜÜÜÜÜÜÜÜÜÜÜÜÜÜÜÜÜÜÜÜÜÜÜÜÜÜÜÜÜÜÜÜÜÜÜÜÜÜÜÜÜÜÜÜÜÜÜÜÜÜÜÜÜÜÜÜÜÜÜÜÜÜÜÜÜÜÜÜÜÜÜÜÜÜÜÜÜÜÜÜÜÜÜÜÜÜÜÜ Û
  5. Û ÛÛÛÛÛÛÛÛÛÛÛÛÛÛÛÛÛÛÛÛÛÛÛÛÛÛÛÛÛÛÛÛÛÛÛÛÛÛÛÛÛÛÛÛÛÛÛÛÛÛÛÛÛÛÛÛÛÛÛÛÛÛÛÛÛÛÛÛÛÛÛÛÛÛÛÛÛÛÛÛÛÛÛÛÛÛÛÛÛÛ Û
  6. ÜÜÛÛÛÛÛÛÛÛÛÛÛÛÛÛÛÛÛÛÛÛÛÛÛÛÛÛÛÛÛÛÛÛÛÛÛÛÛÛÛÛÛÛÛÛÛÛÛÛÛÛÛÛÛÛÛÛÛÛÛÛÛÛÛÛÛÛÛÛÛÛÛÛÛÛÛÛÛÛÛÛÛÛÛÛÛÛÛÛÛÛÜÜ
  7. ÛÛÛÛÛÛÛÛÛÛÛÛÛÛÛÛÛÛÛÛÛÛÛÛÛÛÛÛÛÛÛÛÛÛÛÛÛÛÛÛÛÛÛÛÛÛÛÛÛÛÛÛÛÛÛÛÛÛÛÛÛÛÛÛÛÛÛÛÛÛÛÛÛÛÛÛÛÛÛÛÛÛÛÛÛÛÛÛÛÛÛÛÛÛ
  8. ÛÛÛÛÛÛÛÛÛ°°°°°°°°°°°°°°°°ÛÛÛÛ ÛÛÛÛ°°°°°°°°°°°°°°°°ÛÛÛÛÛÛÛÛÛ
  9. ÛÛÛÛÛÛÛÛ°°°°°°°°°°°°°°°°°ÛÛÛÛ ÛÛÛÛ°°°°°°°°°°°°°°°°°ÛÛÛÛÛÛÛÛ
  10. ÛÛÛÛÛÛÛ°°°°°°°°°°°°°°°°°°ÛÛÛÛ EXVID ÛÛÛÛ°°°°°°°°°°°°°°°°°°ÛÛÛÛÛÛÛ
  11. ÛÛÛÛÛÛÛ°°°°°°°°°°°°°°ÛÛÛÛÛÛÛÛ ÛÛÛÛÛÛÛÛ°°°°°°°°°°°°°°ÛÛÛÛÛÛÛ
  12. ÛÛÛÛÛÛÛ°°°°°°°°°°°°°ÛÛÛÛÛÛÛÛÛ ßßßßßßßßßßßßßßßßßßßßßßßßßßßßßßßß ÛÛÛÛÛÛÛÛÛ°°°°°°°°°°°°°ÛÛÛÛÛÛÛ
  13. ÛÛÛÛÛÛ°°°°°°°°°°°°°ÛÛÛÛÛÛÛÛÛÛ ÛÛÛÛÛÛÛÛÛÛ°°°°°°°°°°°°°ÛÛÛÛÛÛ
  14. ÛÛÛÛÛÛ°°°°°°°°°°°°ÛÛÛÛÛÛÛÛÛÛÛ Filled the Archives ÛÛÛÛÛÛÛÛÛÛÛ°°°°°°°°°°°°ÛÛÛÛÛÛ
  15. ÛÛÛÛÛÛ°°°°°°°°°°°°ÛÛÛÛÛÛÛÛÛÛÛ ÛÛÛÛÛÛÛÛÛÛÛ°°°°°°°°°°°°ÛÛÛÛÛÛ
  16. ÛÛÛÛÛÛ°°°°°°°°°°°°ÛÛÛÛÛÛÛÛÛÛÛ ßßßßßßßßßßßßßßßßßßßßßßßßßßßßßßßß ÛÛÛÛÛÛÛÛÛÛÛ°°°°°°°°°°°°ÛÛÛÛÛÛ
  17. ÛÛÛÛÛÛ°°°°°°°°°°°°ÛÛÛÛÛÛÛÛÛÛÛ ÛÛÛÛÛÛÛÛÛÛÛ°°°°°°°°°°°°ÛÛÛÛÛÛ
  18. ÛÛÛÛÛÛ°°°°°°°°°°°°ÛÛÛÛÛÛÛÛÛÛÛ With: ÛÛÛÛÛÛÛÛÛÛÛ°°°°°°°°°°°°ÛÛÛÛÛÛ
  19. ÛÛÛÛÛÛ°°°°°°°°°°°°ÛÛÛÛÛÛÛÛÛÛÛ ÛÛÛÛÛÛÛÛÛÛÛ°°°°°°°°°°°°ÛÛÛÛÛÛ
  20. ÛÛÛÛÛÛ°°°°°°°°°°°°ÛÛÛÛÛÛÛÛÛÛÛ ßßßßßßßßßßßßßßßßßßßßßßßßßßßßßßßß ÛÛÛÛÛÛÛÛÛÛÛ°°°°°°°°°°°°ÛÛÛÛÛÛ
  21. ÛÛÛÛÛÛÛ°°°°°°°°°°°°ÛÛÛÛÛÛÛÛÛÛ ÛÛÛÛÛÛÛÛÛÛ°°°°°°°°°°°°ÛÛÛÛÛÛÛ
  22. ÛÛÛÛÛÛÛ°°°°°°°°°°°°°ÛÛÛÛÛÛÛÛÛ ² ²²²² ÛÛÛÛÛÛÛÛÛ°°°°°°°°°°°°°ÛÛÛÛÛÛÛ
  23. ÛÛÛÛÛÛÛ°°°°°°°°°°°°°°ÛÛÛÛÛÛÛÛ ²² ²²² E240 ÛÛÛÛÛÛÛÛ°°°°°°°°°°°°°°ÛÛÛÛÛÛÛ
  24. ÛÛÛÛÛÛÛ°°°°°°°°°°°°°°°°°°ÛÛÛÛ ²²² ²² ÛÛÛÛ°°°°°°°°°°°°°°°°°°ÛÛÛÛÛÛÛ
  25. ÛÛÛÛÛÛÛÛ°°°°°°°°°°°°°°°°°ÛÛÛÛ ²²²² ² SP (C) 2009 ÛÛÛÛ°°°°°°°°°°°°°°°°°ÛÛÛÛÛÛÛÛ
  26. ÛÛÛÛÛÛÛÛÛ°°°°°°°°°°°°°°°°ÛÛÛÛ ÛÛÛÛ°°°°°°°°°°°°°°°°ÛÛÛÛÛÛÛÛÛ
  27. ÛÛÛÛÛÛÛÛÛÛÛÛÛÛÛÛÛÛÛÛÛÛÛÛÛÛÛÛÛÛÛÛÛÛÛÛÛÛÛÛÛÛÛÛÛÛÛÛÛÛÛÛÛÛÛÛÛÛÛÛÛÛÛÛÛÛÛÛÛÛÛÛÛÛÛÛÛÛÛÛÛÛÛÛÛÛÛÛÛÛÛÛÛÛ
  28. ÛÛÛÛÛÛÛÛÛÛÛÛÛÛÛÛÛÛÛÛÛÛÛÛÛÛÛÛÛÛÛÛÛÛÛÛÛÛÛÛÛÛÛÛÛÛÛÛÛÛÛÛÛÛÛÛÛÛÛÛÛÛÛÛÛÛÛÛÛÛÛÛÛÛÛÛÛÛÛÛÛÛÛÛÛÛÛÛÛÛÛÛÛÛ
  29. ÛÛÛÛÛÛÛÛÛÛÛÛÛÛÛÛÛÛÛÛÛÛÛÛÛÛÛÛÛÛÛÛÛÛÛÛÛÛÛÛÛÛÛÛÛÛÛÛÛÛÛÛÛÛÛÛÛÛÛÛÛÛÛÛÛÛÛÛÛÛÛÛÛÛÛÛÛÛÛÛÛÛÛÛÛÛÛÛÛÛÛÛÛÛ
  30. ÛÛÛÛßÛÛÛÛÛÛÛ ÛÛÛÛÛ
  31. ÛÛÛÛÜÛÛÛÛÛÛÛ ÛÛÛÛ
  32. ÛÛÛÛÛÛÛÛÛÛÛÛ A.Resurrection.2013.DVDRip.XviD-EXViD ÛÛÛ
  33. ÛÛÛÛÛÛÛÛÛÛÛÛ ÛÛÛÛ
  34. ÛÛÛÛÛÛÛÛÛÛÛÛ ÛÛÛÛÛ
  35. ÛÛÛÛÛÛÛÛÛÛÛÛÛÛÛÛÛÛÛÛÛÛÛÛÛÛÛÛÛÛÛÛÛÛÛÛÛÛÛÛÛÛÛÛÛÛÛÛÛÛÛÛÛÛÛÛÛÛÛÛÛÛÛÛÛÛÛÛÛÛÛÛÛÛÛÛÛÛÛÛÛÛÛÛÛÛÛÛÛÛÛÛÛÛ
  36. EXViD aims to iNTERNAL those releases which have been lost in the archives.
  37. EXViD aims to PRE non-internal releases which have poor sources and are likely skipped by others.
  38. http://www.imdb.com/title/tt1817276/
  39. Subtitles: NL
  40. Date: 2013.06
  41. Director: Matt Orlando
  42. Genres: Horror | Thriller
  43. Plot:
  44. In Middletown high school, the outcast Eli is bullied by the braggart Brandon and his friends.
  45. They are held in detention by the principal Addison to be interviewed by the psychologist Jessie,
  46. who is engaged to Deputy Travis the son of the local priest. Jessie and Addison realize that the
  47. mentally disturbed Eli misses his big brother Devon, who was murdered in a hit-and-runner. When
  48. Eli finally talks to Jessie, he tells that Devon was killed by Brandon. Further, Eli tells that
  49. he found the body of his brother and a witch has put an evil spirit in his body. Now he needs
  50. six souls to live again and he will seek revenge against Brandon and his friends. The skeptic
  51. and atheist Jessie does not believe in his words.
  52. Cast:
  53. Mischa Barton ... Jessie
  54. Devon Sawa ... Travis
  55. Michael Clarke Duncan ... Addison
  56. J. Michael Trautmann ... Eli (as Jonathan Michael Trautmann)
  57. Stuart Stone ... Nick
  58. Nick Jandl ... Brandon
  59. Matthew Willig ... Vince
  60. Alanna Janell ... Tammy (as Alanna Romansky)
  61. Morgan Wolk ... Dian
  62. Brenden Meers ... Alex
  63. Annie Kitral ... The Bruja
  64. Antonio Costa ... Ignacio
  65. Patrick de Ledebur ... Devon
  66. Sean Derry ... Carl
  67. Jason McCune ... Sheriff Kent
  68. Stats:
  69. Format : AVI
  70. Format/Info : Audio Video Interleave
  71. File size : 700 MiB
  72. Duration : 1h 26mn
  73. Overall bit rate : 1 129 Kbps
  74. Writing application : VirtualDubMod 1.5.10.2 (build 2540/release)
  75. Writing library : VirtualDubMod build 2540/release
  76. Video
  77. ID : 0
  78. Format : MPEG-4 Visual
  79. Format profile : Advanced Simple@L5
  80. Format settings, BVOP : Yes
  81. Format settings, QPel : No
  82. Format settings, GMC : No warppoints
  83. Format settings, Matrix : Default (H.263)
  84. Muxing mode : Packed bitstream
  85. Codec ID : XVID
  86. Codec ID/Hint : XviD
  87. Duration : 1h 26mn
  88. Bit rate : 990 Kbps
  89. Width : 640 pixels
  90. Height : 320 pixels
  91. Display aspect ratio : 2.000
  92. Frame rate : 25.000 fps
  93. Color space : YUV
  94. Chroma subsampling : 4:2:0
  95. Bit depth : 8 bits
  96. Scan type : Progressive
  97. Bits/(Pixel*Frame) : 0.193
  98. Stream size : 613 MiB (88%)
  99. Writing library : XviD 64
  100. Audio
  101. ID : 1
  102. Format : MPEG Audio
  103. Format version : Version 1
  104. Format profile : Layer 3
  105. Mode : Joint stereo
  106. Mode extension : MS Stereo
  107. Codec ID : 55
  108. Codec ID/Hint : MP3
  109. Duration : 1h 26mn
  110. Bit rate mode : Variable
  111. Bit rate : 127 Kbps
  112. Minimum bit rate : 128 Kbps
  113. Channel(s) : 2 channels
  114. Sampling rate : 48.0 KHz
  115. Stream size : 78.5 MiB (11%)
  116. Alignment : Aligned on interleaves
  117. Interleave, duration : 24 ms (0.60 video frame)
  118. Interleave, preload duration : 486 ms
  119. Writing library : LAME4.0a
  120. Encoding settings : -m j -V 4 -q 5 -lowpass 17.5 --vbr-old -b 128
  121. Release notes:
  122. enjoy!
  123. Looking for:
  124. 75TB+ Archives
  125. DUTCH/FLEMiSH Archives
  126. Greets: CRBS EPiSODE FiCO FLS iLS KLASSiGER LiPSYNC MADE NODLABS RUNNER SPRiNTER
  127. ÛÛÛÛÛÛÛÛÛÛÛÛÛÛÛÛÛÛÛÛÛÛÛÛÛÛÛÛÛÛÛÛÛÛÛÛÛÛÛÛÛÛÛÛÛÛÛÛÛÛÛÛÛÛÛÛÛÛÛÛÛÛÛÛÛÛÛÛÛÛÛÛÛÛÛÛÛÛÛÛÛÛÛÛÛÛÛÛÛÛÛÛÛÛ
  128. ASCII DONE BY XX^NFO 2oo9
Comments powered by Disqus