1. ÉÍÄÄÄÄÄÄÄÄÄÄÄÄÄÄÄÄÄÄÄÄÄÄÄÄÄÄÄÄÄÄÍÍÍÍÍÍÍÍÍÍÍÍÍÍÍÄÄÄÄÄÄÄÄÄÄÄÄÄÄÄÄÄÄÄÄÄÄÄÄÄÄÄÄÄÄÄÍ»
  2. º ÿ º
  3. º ::: :::ÿ ÿ::::: ÿÿ:::ÿ ÿ::: ::::: ÿÿ:::ÿÿÿ ::: ::: ::::: º
  4. º ::: :::ÿ :::::::ÿÿÿ:::ÿ ÿ::: ::::::: :::::ÿÿ ::: ::: ::::::: º
  5. º ::: :::ÿÿ:::::::::ÿÿ:::ÿÿÿ:::ÿÿÿ:::::::::ÿ ::: ::: ÿ::: ::: ::::::::: º
  6. º ::: ::: ÿ:::ÿÿÿ:::ÿÿ:::ÿÿ:::ÿ ÿÿ:::ÿÿÿ::: ÿ::: ::: ÿ::: ::: :::ÿÿÿ::: º
  7. º ::: ::: ÿ:::ÿ ÿ:::ÿÿ:::::::ÿÿ ÿÿ::: ÿ::: ÿ::: ::: ::: ::: :::ÿ ÿ::: º
  8. º ::: ::: ÿ:::ÿ ÿ:::ÿÿ::::::ÿÿ ÿÿ::: ÿ::: ÿ::: ::: ::: : ::: :::ÿ ÿ::: º
  9. º ::: ::: ÿ:::ÿ ÿ:::ÿÿ:::::::ÿÿ ÿÿ::: ÿ::: ÿ::: ::: ::: ::: ::: :::ÿ ÿ::: º
  10. º ::: ::: ÿ:::ÿ ÿ:::ÿÿ:::ÿÿ:::ÿÿÿÿ::: ÿ::: ÿ::: ::: ::: : : ::: :::ÿ ÿ::: º
  11. º :::..::: ÿ:::ÿ ÿ:::ÿÿ:::ÿ ÿ:::ÿÿÿ::: ÿ::: ÿ::: ::: ::::: ::::: :::ÿ ÿ::: º
  12. º ÿ::::::ÿÿÿ:::ÿ ÿ:::ÿÿ:::ÿ ÿÿ:::ÿÿ::: ÿ::: ÿÿ:::::ÿÿ ::::: ::::: :::ÿ ÿ::: º
  13. º ÿ::::ÿ ÿ:::ÿ ÿ:::ÿÿ:::ÿ ÿÿ:::ÿ::: ÿ::: ÿÿÿ:::ÿÿ :::: :::: :::ÿ ÿ::: º
  14. ÌÍÄÄÄÄÄÄÄÄÄÄÄÄÄÄÄÄÄÄÄÄÄÄÄÄÄÄÄÄÄÄÍÍÍÍÍÍÍÍÍÍÍÍÍÍÍÄÄÄÄÄÄÄÄÄÄÄÄÄÄÄÄÄÄÄÄÄÄÄÄÄÄÄÄÄÄÄ͹
  15. º º
  16. ³Ð Ð Ð Ð Ð Ð Ð Ð Ð Ð Ð Ð Ð Ð Ð Ð Ð NOTES Ð Ð Ð Ð Ð Ð Ð Ð Ð Ð Ð Ð Ð Ð Ð Ð Ð Ð ³
  17. ³ ³
  18. ³Ð Ð Ð Ð Ð Ð Ð Ð Ð Ð Ð Ð Ð Ð Ð Ð Ð NOTES Ð Ð Ð Ð Ð Ð Ð Ð Ð Ð Ð Ð Ð Ð Ð Ð Ð Ð ³
  19. ³ ³
  20. ³ ³
  21. ³ ³
  22. ³ Encoded By .......:UnKnOwN ³
  23. ³ Runtime ..........:1:32 ³
  24. ³ IMDb URL .........: ³
  25. ³ Language .........:English ³
  26. ³ File Size ........:886mb ³
  27. ³ Release Date ......... 2013 ³
  28. ³ Source ......... Your supplier ³
  29. ³ File Type ......... Single AVI ³
  30. ³ PS3 Compatible ....... You still whining about your Ps3 ³
  31. ³ Genre ......... Horror/Thriller ³
  32. ³ ³
  33. ³ ³
  34. ³ Video ³
  35. ³ ID : 0 ³
  36. ³ Format : MPEG-4 Visual ³
  37. ³ Format profile : Advanced Simple@L5 ³
  38. ³ Format settings, BVOP : Yes ³
  39. ³ Format settings, QPel : No ³
  40. ³ Format settings, GMC : No warppoints ³
  41. ³ Format settings, Matrix : Custom ³
  42. ³ Codec ID : XVID ³
  43. ³ Codec ID/Hint : XviD ³
  44. ³ Duration : 1h 32mn ³
  45. ³ Bit rate : 1380kbps ³
  46. ³ Width : 680pixels ³
  47. ³ Height : 368pixels ³
  48. ³ Display aspect ratio : 16:9 ³
  49. ³ Frame rate : 29.000fps ³
  50. ³ Color space : YUV ³
  51. ³ Chroma subsampling : 4:2:0 ³
  52. ³ Bit depth : 8 bits ³
  53. ³ Scan type : Progressive ³
  54. ³ Bits/(Pixel*Frame) : 0.234 ³
  55. ³ Stream size : 892 MiB (86%) ³
  56. ³ Writing library : XviD 1.2.1 (UTC 2008-12-04) ³
  57. ³ ³
  58. ³ ³
  59. ³ Audio ³
  60. ³ ID : 1 ³
  61. ³ Format : AC3 ³
  62. ³ Format/Info : MPEG ³
  63. ³ Mode extension : CM (complete main) ³
  64. ³ Codec ID : 2000 ³
  65. ³ Duration : 1h 32mn ³
  66. ³ Bit rate mode : Constant ³
  67. ³ Bit rate : 128kbps ³
  68. ³ Channel(s) : 2channels ³
  69. ³ Channel positions : Front: L R, ³
  70. ³ Sampling rate : 48.0 KHz ³
  71. ³ Bit depth : 16 bits ³
  72. ³ Stream size : 302 MiB ³
  73. ³ Alignment : Aligned on interleaves ³
  74. ³ Interleave, duration : 42 ms (1.00 video frame) ³
  75. ³ Interleave, preload duration : 512 ms ³
  76. ³ ³
  77. ³ ³
  78. ³ ³
  79. ³ ³
  80. ³ ³
  81. ³ ³
  82. ³ ³
  83. ³ SYNOPSIS ³
  84. ³ The citizens of a small town face a nightmare of apocalyptic proportions ³
  85. ³ after a government plane crashes nearby, unleashing a top-secret ³
  86. ³ government experiment that can't be contained ³
  87. ³ ³
  88. ³ ³
  89. ³ ³
  90. ³ ³
  91. ³ ³
  92. ³ ³
  93. ³ ³
  94. ³ ³
  95. ³ ³
  96. ³ ³
  97. ³ ³
  98. ³ ³
  99. ³ ³
  100. ³ ³
  101. ³ RELEASE INFO ³
  102. ³ http://www.amazon.com/Re-Generator-Olivier-Gruner/dp/B00BC1UPQU ³
  103. ³ Can't find a imbd for it enjoy ³
  104. ³ ³
  105. ³ ³
  106. ³ ³
  107. ³ ³
  108. ³ ³
  109. ³ ³
  110. ³ ³
  111. ³ ³
  112. ³ ³
  113. ³ ³
  114. ³ ³
  115. ³ ³
  116. ³ ³
  117. º º
  118. º º
  119. º º
  120. ÈÍÍÍÍÍÍÍÍÍÍÍÍÍÍÍÍÍÍÍÍÍÍÍÍÍÍÍÍÍÍÍÍÍÍÍÍÍÍÍÍÍÍÍÍÍÍÍÍÍÍÍÍÍÍÍÍÍÍÍÍÍÍÍÍÍÍÍÍÍÍÍÍÍÍÍÍÍͼ
  121. ÉÍËÍÍÍÍÍÍÍ» ÉÄËÄÄËÄÄÄËÄÄÄÄËÍÄÄÄÍËÍÄÄÄÍËÄÄÄÄËÄÄÄËÄÄËÄ» ÉÍÍÍÍÍÍÍËÍ»
  122. Èμ ÈÄÍÍÍÍÍÄͼÍÊÍÍÊÍÍÍÊÍÍÍÍÊÍÍÍÍÍÊÍÍÍÍÍÊÍÍÍÍÊÍÍÍÊÍÍÊÍÈÍÄÍÍÍÍÍÄͼ Èμ
  123. º º
  124. º LOOKING FOR º
  125. º Nothing you have º
  126. º º
  127. º º
  128. º º
  129. º º
  130. º º
  131. ÉÎËÍÍÍÍÍÍÍÍÍÍÍÍÍÍÍÍÍÍÍÍÍÍÍÍÍÍÍÍÍÍÍÍÍÍÍÍÍÍÍÍÍÍÍÍÍÍÍÍÍÍÍÍÍÍÍÍÍÍÍÍÍÍÍÍÍÍÍÍÍÍÍÍÍÍËλ
  132. È˼ Ð Ð Ð Ð Ð Ð Ð Ð Ð Ð Ð Ð Ð Ð GREETZ & RESPECT Ð Ð Ð Ð Ð Ð Ð Ð Ð Ð Ð Ð Ð ÐÈ˼
  133. ÈÍÍÍÍÍÍÍÍÍÍÍÍÍÍÍÍÍÍÍÍÍÍÍËÍÍÍÍÍÍÍÍÍÍÍÍÍÍÍÍÍÍÍÍÍÍÍÍÍÍÍÍÍÍËÍÍÍÍÍÍÍÍÍÍÍÍÍÍÍÍÍÍÍÍͼ
  134. º EVERY FEMALE YOU KNOW º
  135. º º
  136. º MORE GOODIES COMING REAL SOONº
  137. ÈÍÍÍÍÍÍÍÍÍÍÍÍÍÍÍÍÍÍÍÍÍÍÍÍÍÍÍÍÍͼ
Comments powered by Disqus