1. http://imdb.com/title/tt829176/
  2. General
  3. Complete name : etm-gallow-720p.mkv
  4. Format : Matroska
  5. Format version : Version 4 / Version 2
  6. File size : 3.40 GiB
  7. Duration : 1h 32mn
  8. Overall bit rate : 5 272 Kbps
  9. Encoded date : UTC 2013-07-23 19:09:54
  10. Writing application : mkvmerge v6.3.0 ('You can't stop me!') built on Jun 27 2013 22:15:06
  11. Writing library : libebml v1.3.0 + libmatroska v1.4.0
  12. Video
  13. ID : 1
  14. Format : AVC
  15. Format/Info : Advanced Video Codec
  16. Format profile : [email protected]
  17. Format settings, CABAC : Yes
  18. Format settings, ReFrames : 5 frames
  19. Codec ID : V_MPEG4/ISO/AVC
  20. Duration : 1h 32mn
  21. Bit rate : 3 658 Kbps
  22. Width : 1 280 pixels
  23. Height : 544 pixels
  24. Display aspect ratio : 2.35:1
  25. Frame rate mode : Constant
  26. Frame rate : 23.976 fps
  27. Color space : YUV
  28. Chroma subsampling : 4:2:0
  29. Bit depth : 8 bits
  30. Scan type : Progressive
  31. Bits/(Pixel*Frame) : 0.219
  32. Stream size : 2.36 GiB (69%)
  33. Writing library : x264 core 133 r2334 a3ac64b
  34. Encoding settings : cabac=1 / ref=5 / deblock=1:0:0 / analyse=0x3:0x113 / me=umh / subme=7 / psy=1 / psy_rd=1.00:0.00 / mixed_ref=1 / me_range=16 / chroma_me=1 / trellis=1 / 8x8dct=1 / cqm=0 / deadzone=21,11 / fast_pskip=0 / chroma_qp_offset=-2 / threads=6 / lookahead_threads=1 / sliced_threads=0 / nr=0 / decimate=1 / interlaced=0 / bluray_compat=0 / constrained_intra=0 / bframes=3 / b_pyramid=2 / b_adapt=1 / b_bias=0 / direct=1 / weightb=1 / open_gop=0 / weightp=2 / keyint=250 / keyint_min=23 / scenecut=40 / intra_refresh=0 / rc_lookahead=40 / rc=crf / mbtree=1 / crf=20.0 / qcomp=0.60 / qpmin=0 / qpmax=69 / qpstep=4 / ip_ratio=1.40 / aq=1:1.00
  35. Default : Yes
  36. Forced : No
  37. Audio
  38. ID : 2
  39. Format : DTS
  40. Format/Info : Digital Theater Systems
  41. Mode : 16
  42. Format settings, Endianness : Big
  43. Codec ID : A_DTS
  44. Duration : 1h 32mn
  45. Bit rate mode : Constant
  46. Bit rate : 1 509 Kbps
  47. Channel(s) : 6 channels
  48. Channel positions : Front: L C R, Side: L R, LFE
  49. Sampling rate : 48.0 KHz
  50. Bit depth : 16 bits
  51. Compression mode : Lossy
  52. Stream size : 996 MiB (29%)
  53. Language : English
  54. Default : No
  55. Forced : No
Comments powered by Disqus