1. ( ___ )|\ /|( ____ \( __ \
  2. | ( ) |( \ / )| ( \/| ( \ )
  3. | (___) | \ (_) / | (__ | | ) |
  4. | ___ | ) _ ( | __) | | | |
  5. | ( ) | / ( ) \ | ( | | ) |
  6. | ) ( |( / \ )| (____/\| (__/ )
  7. |/ \||/ \|(_______/(______/
  8. _ _ _ _ _ _ _ _
  9. / \ / \ / \ / \ / \ / \ / \ / \
  10. ( p )( r )( e )( s )( e )( n )( t )( s )
  11. \_/ \_/ \_/ \_/ \_/ \_/ \_/ \_/
  12. 30.Nights.Of.Paranormal.Activity.With.The.Devil.Inside.The.Girl.With.The.Dragon.Tattoo.2013.DVDRiP.AC3-5.1.XviD-AXED
  13. POSTER:
  14. [IMG]http://img6.imageshack.us/img6/527/dvzvexs56jrqdb1l.jpg[/IMG]
  15. IMDB:
  16. http://www.imdb.com/title/tt2417650/
  17. PLOT INFO:
  18. After a stint in a p a psychiatric hospital, a young woman returns to the house where here father killed the entire cast of The Artist during his exorcism.
  19. MEDIAINFO:
  20. General
  21. Complete name : 30.Night.Of.Paranormal.Activity.With.The.Devil.Inside.The.Girl.With.The.Dragon.Tattoo.2013.DVDRiP.AC3-5.1.XviD-AXED
  22. Format : AVI
  23. Format/Info : Audio Video Interleave
  24. File size : 1.54 GiB
  25. Duration : 1h 19mn
  26. Overall bit rate : 2 748 Kbps
  27. Video
  28. ID : 0
  29. Format : MPEG-4 Visual
  30. Format profile : Advanced Simple@L5
  31. Format settings, BVOP : 1
  32. Format settings, QPel : No
  33. Format settings, GMC : No warppoints
  34. Format settings, Matrix : Default (H.263)
  35. Codec ID : XVID
  36. Codec ID/Hint : XviD
  37. Duration : 1h 19mn
  38. Bit rate : 2 293 Kbps
  39. Width : 720 pixels
  40. Height : 384 pixels
  41. Display aspect ratio : 1.875
  42. Frame rate : 23.976 fps
  43. Color space : YUV
  44. Chroma subsampling : 4:2:0
  45. Bit depth : 8 bits
  46. Scan type : Progressive
  47. Compression mode : Lossy
  48. Bits/(Pixel*Frame) : 0.346
  49. Stream size : 1.28 GiB (83%)
  50. Writing library : XviD 1.2.1 (UTC 2008-12-04)
  51. Audio
  52. ID : 1
  53. Format : AC-3
  54. Format/Info : Audio Coding 3
  55. Mode extension : CM (complete main)
  56. Codec ID : 2000
  57. Duration : 1h 19mn
  58. Bit rate mode : Constant
  59. Bit rate : 448 Kbps
  60. Channel(s) : 6 channels
  61. Channel positions : Front: L C R, Side: L R, LFE
  62. Sampling rate : 48.0 KHz
  63. Bit depth : 16 bits
  64. Compression mode : Lossy
  65. Stream size : 256 MiB (16%)
  66. Alignment : Aligned on interleaves
  67. Interleave, duration : 64 ms (1.53 video frames)
  68. Interleave, preload duration : 192 ms
  69. Title : VTS_01_1 T80 3_2ch 448Kbps DELAY 0ms
  70. SOURCE:
  71. Retail DVD
  72. NOTES:
  73. I'm sure this one is fuckin' awesome.
  74. AXED! - We're still lurking, out there in the darkness
  75. SCREENS:
  76. [IMG]http://imageshack.us/a/img9/1122/43855967.png[/IMG]
  77. [IMG]http://imageshack.us/a/img9/6333/32473588.png[/IMG]
  78. [IMG]http://imageshack.us/a/img202/2773/84829584.png[/IMG]
  79. [IMG]http://imageshack.us/a/img51/2204/55354286.png[/IMG]
  80. [IMG]http://imageshack.us/a/img541/3668/83777111.png[/IMG]
  81. [video=http://www.youtube.com/watch?v=HD7WEn389Nk]
Comments powered by Disqus