1. 21 & Over (2013)
  2. 93 min - Comedy .
  3. NFO:
  4. Format : AVI
  5. Format/Info : Audio Video Interleave
  6. Format profile : OpenDML
  7. Format settings : rec
  8. File size : 1.36 GiB
  9. Duration : 1h 29mn
  10. Overall bit rate : 2 187 Kbps
  11. Writing application : AVI-Mux GUI 1.17.8.3, Feb 201019:42:50
  12. ID : 0
  13. Format : MPEG-4 Visual
  14. Format profile : Advanced Simple@L5
  15. Format settings, BVOP : 2
  16. Format settings, QPel : No
  17. Format settings, GMC : No warppoints
  18. Format settings, Matrix : Default (H.263)
  19. Codec ID : XVID
  20. Codec ID/Hint : XviD
  21. Duration : 1h 29mn
  22. Bit rate : 1 990 Kbps
  23. Width : 720 pixels
  24. Height : 400 pixels
  25. Display aspect ratio : 16:9
  26. Frame rate : 25.000 fps
  27. Color space : YUV
  28. Chroma subsampling : 4:2:0
  29. Bit depth : 8 bits
  30. Scan type : Progressive
  31. Compression mode : Lossy
  32. Bits/(Pixel*Frame) : 0.276
  33. Stream size : 1.24 GiB (91%)
  34. Writing library : XviD 1.2.1 (UTC 2008-12-04)
  35. Audio
  36. ID : 1
  37. Format : AC-3
  38. Format/Info : Audio Coding 3
  39. Mode extension : CM (complete main)
  40. Format settings, Endianness : Big
  41. Codec ID : 2000
  42. Duration : 1h 29mn
  43. Bit rate mode : Constant
  44. Bit rate : 192 Kbps
  45. Channel(s) : 2 channels
  46. Channel positions : Front: L R
  47. Sampling rate : 48.0 KHz
  48. Bit depth : 16 bits
  49. Compression mode : Lossy
  50. Stream size : 123 MiB (9%)
  51. Alignment : Aligned on interleaves
  52. Interleave, duration : 64 ms (1.60 video frames)
  53. Interleave, preload duration : 192 ms
  54. Title : Audio-Cam
  55. Director: Jon Lucas, Scott Moore
  56. Stars: Miles Teller, Justin Chon, Sarah Wright
  57. Cast:
  58. Miles Teller ... Miller
  59. Skylar Astin ... Casey
  60. Justin Chon ... Jeff Chang
  61. Sarah Wright ... Nicole
  62. Jonathan Keltz ... Randy
  63. Fran?ois Chau ... Dr. Chang
  64. Russell Hodgkinson ... The Chief
  65. Daniel Booko ... Julian
  66. Russell Mercado ... Jayden
  67. Josie Loren ... Pledge Aguilar
  68. Christiann Castellanos ... Pledge Gomez
  69. Dustin Ybarra ... PJ Brill
  70. Samantha Futerman ... Sally Huang
  71. Julian Gavilanes ... Stoner #1
  72. Josh Truax ... Stoner #2
  73. When Straight-A college student Jeff Chang's two best friends take him out for his 21st birthday on the night before an important medical school interview, what was supposed to be a quick beer becomes a night of humiliation, over indulgence and utter debauchery.
Comments powered by Disqus