1. ## ## #### ## ## ######## ###### ## ## #######
  2. ## ## ## ## ## ## ## ## ### ### ## ##
  3. ## ## ## ## ## ## ## #### #### ## ##
  4. ######### ## ## ## ###### ####### ## ## ### ## #######
  5. ## ## ## ## ## ## ## ## ## ## ##
  6. ## ## ## ## ## ## ## ## ## ## ## ##
  7. ## ## #### ### ######## ###### ## ## #######
  8. ########### Thx Hive - CM8 Doing It Right The First Time ###########
  9. [IMG]http://i.imgur.com/5Mp6s.jpg[/IMG]
  10. The.Holding.2011.BDRip.XVID.AC3.HQ.Hive-CM8
  11. Source: Bluray
  12. Video.: 720x304 @bitrate 1700 2pass
  13. Audio.: English DTS to AC3 5.1 @448
  14. Sample: Yes, included
  15. IMDb..: http://www.imdb.com/title/tt1582621/
  16. General
  17. Complete name : The.Holding.2011.BDRip.XVID.AC3.HQ.Hive-CM8.avi
  18. Format : AVI
  19. Format/Info : Audio Video Interleave
  20. File size : 1.52 GiB
  21. Duration : 1h 32mn
  22. Overall bit rate : 2 349 Kbps
  23. Writing application : Nandub v1.0rc2
  24. Writing library : Nandub build 1853/release
  25. Video
  26. ID : 0
  27. Format : MPEG-4 Visual
  28. Format profile : Advanced Simple@L5
  29. Format settings, BVOP : 1
  30. Format settings, QPel : Yes
  31. Format settings, GMC : No warppoints
  32. Format settings, Matrix : Default (H.263)
  33. Muxing mode : Packed bitstream
  34. Codec ID : XVID
  35. Codec ID/Hint : XviD
  36. Duration : 1h 32mn
  37. Bit rate : 1 700 Kbps
  38. Width : 720 pixels
  39. Height : 304 pixels
  40. Display aspect ratio : 2.40:1
  41. Frame rate : 24.000 fps
  42. Color space : YUV
  43. Chroma subsampling : 4:2:0
  44. Bit depth : 8 bits
  45. Scan type : Progressive
  46. Compression mode : Lossy
  47. Bits/(Pixel*Frame) : 0.324
  48. Stream size : 1.10 GiB (72%)
  49. Writing library : XviD 1.2.1 (UTC 2008-12-04)
  50. Audio
  51. ID : 1
  52. Format : AC-3
  53. Format/Info : Audio Coding 3
  54. Mode extension : CM (complete main)
  55. Format settings, Endianness : Big
  56. Codec ID : 2000
  57. Duration : 1h 32mn
  58. Bit rate mode : Constant
  59. Bit rate : 640 Kbps
  60. Channel(s) : 6 channels
  61. Channel positions : Front: L C R, Side: L R, LFE
  62. Sampling rate : 48.0 KHz
  63. Bit depth : 16 bits
  64. Compression mode : Lossy
  65. Delay relative to video : 8ms
  66. Stream size : 425 MiB (27%)
  67. Alignment : Split accross interleaves
  68. Interleave, duration : 42 ms (1.00 video frame)
  69. Interleave, preload duration : 500 ms
  70. PLOT
  71. A heart-pounding suspense thriller, set on an isolated farm
  72. in England's beautiful, rugged Peak District.
  73. CAST
  74. Vincent Regan ... Aden
  75. Terry Stone ... Karsten Rabe
  76. David Bradley ... Cooper
  77. Georgia Groome ... Gemma
  78. [img]http://img688.imageshack.us/img688/2503/tthhth.png[/img]
  79. [img]http://img22.imageshack.us/img22/3852/tthhthtthh.png[/img]
  80. [img]http://img824.imageshack.us/img824/3295/tthhthttthhh.png[/img]
  81. [img]http://img849.imageshack.us/img849/4761/tthhtthh.png[/img]
  82. [img]http://img580.imageshack.us/img580/5443/ththc.png[/img]
  83. [video=http://www.youtube.com/watch?v=_R8_KtppA_Q]
  84. GREETZ
  85. ViSiON,SPK,SceneLovers,PRESTiGE,SANTi,3LT0N,YanKeeS,COPYxRIGHT,THC,T0XiC
  86. D2U,LKRG,ADTRG,Feel-Free,KoDeKinG,FLAWL3SS,WBZ,BHRG,26K,NOVA,MAGNET
  87. Unevano,BigVik,Rapeseed,SAFC,goldadvance,KaN1vE,Pinnz,Wayne,TED
  88. SeeN,jtr,Limey,ICONiK,4PlayHD,THEDEN-RG,eXceSs,AKS74u,HiGH
  89. Mr Hive,and most P2P groups
  90. Great Work Guys!
  91. LOOKING FOR ANYTHING YOU WANT TO LOOK AND SOUND BETTER
  92. [email protected]
Comments powered by Disqus