1. Sing 2016 READNFO CAM XviD AC3 ACAB
  2. http://www.imdb.com/title/tt3470600
  3. READNFO Reason
  4. For Some Reason When Syncing Video And Audio Its Duplicated Frames When This Happens It Only Lasts A Second Doesnt Spoil The Movie (Hopefully Not Anyways) Maybe I Proper Encoder Could Sync Properly But I Dont Pretend That Im Great Far From It. So For Now Enjoy ...
  5. P.s. Theres More Stuff In The Pipeline >>>
  6. Source Video - MVGEE [Thanks]
  7. Source Audio - Thanks Bro :bow:
  8. Format : AVI
  9. Format/Info : Audio Video Interleave
  10. File size : 1.42 GiB
  11. Duration : 1 h 41 min
  12. Overall bit rate : 2 001 kb/s
  13. Writing library : VirtualDub build 30091/release
  14. Video
  15. ID : 0
  16. Format : MPEG-4 Visual
  17. Format profile : Advanced [email protected]
  18. Format settings, BVOP : 2
  19. Format settings, QPel : No
  20. Format settings, GMC : No warppoints
  21. Format settings, Matrix : Default (H.263)
  22. Muxing mode : Packed bitstream
  23. Codec ID : XVID
  24. Codec ID/Hint : XviD
  25. Duration : 1 h 41 min
  26. Bit rate : 1 800 kb/s
  27. Width : 720 pixels
  28. Height : 384 pixels
  29. Display aspect ratio : 1.85:1
  30. Frame rate : 25.000 FPS
  31. Color space : YUV
  32. Chroma subsampling : 4:2:0
  33. Bit depth : 8 bits
  34. Scan type : Progressive
  35. Compression mode : Lossy
  36. Bits/(Pixel*Frame) : 0.260
  37. Stream size : 1.28 GiB (90%)
  38. Writing library : XviD 67
  39. Audio
  40. ID : 1
  41. Format : AC-3
  42. Format/Info : Audio Coding 3
  43. Mode extension : CM (complete main)
  44. Format settings, Endianness : Big
  45. Codec ID : 2000
  46. Duration : 1 h 41 min
  47. Bit rate mode : Constant
  48. Bit rate : 192 kb/s
  49. Sampling rate : 48.0 kHz
  50. Frame rate : 31.250 FPS (1536 spf)
  51. Compression mode : Lossy
  52. Stream size : 139 MiB (10%)
  53. Alignment : Aligned on interleaves
  54. Interleave, duration : 40 ms (1.00 video frame)
  55. Interleave, preload duration : 512 ms
Comments powered by Disqus