1. [IMG]http://img850.imageshack.us/img850/2923/jungled.jpg[/IMG]
  2. [color=blue][size=4][b]The.Jungle.Book.2013.DVDRip.XVID.AC3.HQ.Hive-CM8[/b][/size][/color]
  3. Thx Hive
  4. CM8 Doing It Right The First Time
  5. Source: DVD-R1 LTFS
  6. thx
  7. Encode:
  8. imdb says 2014 but obviously its out already :)
  9. Quality was very nice, added sharpness,brightness,rgb
  10. got very nice
  11. enjoy
  12. Video: 720x400 @bitrate 1700 2pass
  13. Audio: English AC3 5.1 @448
  14. Sample: yes included
  15. http://www.imdb.com/title/tt2226178/
  16. General
  17. Complete name : The.Jungle.Book.2013.DVDRip.XVID.AC3.HQ.Hive-CM8.avi
  18. Format : AVI
  19. Format/Info : Audio Video Interleave
  20. File size : 968 MiB
  21. Duration : 1h 2mn
  22. Overall bit rate : 2 153 Kbps
  23. Writing application : Nandub v1.0rc2
  24. Writing library : Nandub build 1853/release
  25. Video
  26. ID : 0
  27. Format : MPEG-4 Visual
  28. Format profile : Advanced Simple@L5
  29. Format settings, BVOP : 2
  30. Format settings, QPel : Yes
  31. Format settings, GMC : No warppoints
  32. Format settings, Matrix : Default (H.263)
  33. Muxing mode : Packed bitstream
  34. Codec ID : XVID
  35. Codec ID/Hint : XviD
  36. Duration : 1h 2mn
  37. Bit rate : 1 696 Kbps
  38. Width : 720 pixels
  39. Height : 400 pixels
  40. Display aspect ratio : 16:9
  41. Frame rate : 23.976 fps
  42. Color space : YUV
  43. Chroma subsampling : 4:2:0
  44. Bit depth : 8 bits
  45. Scan type : Progressive
  46. Compression mode : Lossy
  47. Bits/(Pixel*Frame) : 0.246
  48. Stream size : 762 MiB (79%)
  49. Writing library : XviD 1.2.1 (UTC 2008-12-04)
  50. Audio
  51. ID : 1
  52. Format : AC-3
  53. Format/Info : Audio Coding 3
  54. Mode extension : CM (complete main)
  55. Format settings, Endianness : Big
  56. Codec ID : 2000
  57. Duration : 1h 2mn
  58. Bit rate mode : Constant
  59. Bit rate : 448 Kbps
  60. Channel(s) : 6 channels
  61. Channel positions : Front: L C R, Side: L R, LFE
  62. Sampling rate : 48.0 KHz
  63. Bit depth : 16 bits
  64. Compression mode : Lossy
  65. Delay relative to video : 50ms
  66. Stream size : 201 MiB (21%)
  67. Alignment : Split accross interleaves
  68. Interleave, duration : 42 ms (1.00 video frame)
  69. Interleave, preload duration : 500 ms
  70. Plot:
  71. An animated version of the classic Rudyard Kipling book about a boy who grows up in the jungle.
  72. [img]http://img515.imageshack.us/img515/3006/jbjb.png[/img]
  73. [img]http://img41.imageshack.us/img41/8889/jjbbjb.png[/img]
  74. [img]http://img713.imageshack.us/img713/1993/jjbbjbjb.png[/img]
  75. [img]http://img401.imageshack.us/img401/1982/jjbbjjbbjb.png[/img]
  76. [img]http://img10.imageshack.us/img10/7391/81524659.png[/img]
  77. [video=http://www.youtube.com/watch?v=9WZGL-Q-ZPQ]
  78. Greetz
  79. LTFS,ViSiON,SPK,SceneLovers,PRESTiGE,SANTi,3LT0N,YanKeeS,COPYxRIGHT,THC,T0XiC
  80. D2U,LKRG,ADTRG,Feel-Free,KoDeKinG,FLAWL3SS,WBZ,BHRG,26K,NOVA,MAGNET
  81. Unevano,BigVik,Rapeseed,SAFC,goldadvance,KaN1vE,Pinnz,Wayne,HiGH
  82. SeeN,jtr,Limey,ICONiK,4PlayHD,THEDEN-RG,eXceSs,AKS74u,TED
  83. Mr Hive,rkofan,and most P2P groups
  84. Great Work Guys :D
  85. LOOKING FOR ANYTHING YOU WANT TO LOOK AND SOUND BETTER
  86. [email protected]
Comments powered by Disqus