1. ▄██████████████████████████████████████████████████████████████████████████████████████████▄
  2. ██████████████████████████████████████████████████████████████████████████████████████████████
  3. ██████████████████████████████████████████████████████████████████████████████████████████████
  4. █ ▄▄▄▄▄▄▄▄▄▄▄▄▄▄▄▄▄▄▄▄▄▄▄▄▄▄▄▄▄▄▄▄▄▄▄▄▄▄▄▄▄▄▄▄▄▄▄▄▄▄▄▄▄▄▄▄▄▄▄▄▄▄▄▄▄▄▄▄▄▄▄▄▄▄▄▄▄▄▄▄▄▄▄▄▄▄▄▄▄▄ █
  5. █ ██████████████████████████████████████████████████████████████████████████████████████████ █
  6. ▄▄██████████████████████████████████████████████████████████████████████████████████████████▄▄
  7. ██████████████████████████████████████████████████████████████████████████████████████████████
  8. █████████░░░░░░░░░░░░░░░░████ ████░░░░░░░░░░░░░░░░█████████
  9. ████████░░░░░░░░░░░░░░░░░████ ████░░░░░░░░░░░░░░░░░████████
  10. ███████░░░░░░░░░░░░░░░░░░████ EXVID ████░░░░░░░░░░░░░░░░░░███████
  11. ███████░░░░░░░░░░░░░░████████ ████████░░░░░░░░░░░░░░███████
  12. ███████░░░░░░░░░░░░░█████████ ▀▀▀▀▀▀▀▀▀▀▀▀▀▀▀▀▀▀▀▀▀▀▀▀▀▀▀▀▀▀▀▀ █████████░░░░░░░░░░░░░███████
  13. ██████░░░░░░░░░░░░░██████████ ██████████░░░░░░░░░░░░░██████
  14. ██████░░░░░░░░░░░░███████████ Filled the Archives ███████████░░░░░░░░░░░░██████
  15. ██████░░░░░░░░░░░░███████████ ███████████░░░░░░░░░░░░██████
  16. ██████░░░░░░░░░░░░███████████ ▀▀▀▀▀▀▀▀▀▀▀▀▀▀▀▀▀▀▀▀▀▀▀▀▀▀▀▀▀▀▀▀ ███████████░░░░░░░░░░░░██████
  17. ██████░░░░░░░░░░░░███████████ ███████████░░░░░░░░░░░░██████
  18. ██████░░░░░░░░░░░░███████████ With: ███████████░░░░░░░░░░░░██████
  19. ██████░░░░░░░░░░░░███████████ ███████████░░░░░░░░░░░░██████
  20. ██████░░░░░░░░░░░░███████████ ▀▀▀▀▀▀▀▀▀▀▀▀▀▀▀▀▀▀▀▀▀▀▀▀▀▀▀▀▀▀▀▀ ███████████░░░░░░░░░░░░██████
  21. ███████░░░░░░░░░░░░██████████ ██████████░░░░░░░░░░░░███████
  22. ███████░░░░░░░░░░░░░█████████ ▓ ▓▓▓▓ █████████░░░░░░░░░░░░░███████
  23. ███████░░░░░░░░░░░░░░████████ ▓▓ ▓▓▓ E240 ████████░░░░░░░░░░░░░░███████
  24. ███████░░░░░░░░░░░░░░░░░░████ ▓▓▓ ▓▓ ████░░░░░░░░░░░░░░░░░░███████
  25. ████████░░░░░░░░░░░░░░░░░████ ▓▓▓▓ ▓ SP (C) 2009 ████░░░░░░░░░░░░░░░░░████████
  26. █████████░░░░░░░░░░░░░░░░████ ████░░░░░░░░░░░░░░░░█████████
  27. ██████████████████████████████████████████████████████████████████████████████████████████████
  28. ██████████████████████████████████████████████████████████████████████████████████████████████
  29. ██████████████████████████████████████████████████████████████████████████████████████████████
  30. ████▀███████ █████
  31. ████▄███████ ████
  32. ████████████ Fast.Girls.2012.DVDRip.XviD-EXViD ███
  33. ████████████ ████
  34. ████████████ █████
  35. ██████████████████████████████████████████████████████████████████████████████████████████████
  36. EXViD aims to iNTERNAL those releases which have been lost in the archives.
  37. EXViD aims to PRE non-internal releases which have poor sources and are likely skipped by others.
  38. http://www.imdb.com/title/tt1700808/
  39. Subtitles: NL
  40. Date: 2013.01
  41. Director: Regan Hall
  42. Genres: Drama | Sport
  43. Plot:
  44. A street smart runner develops an intense rivalry with an equally ambitious wealthy young athlete.
  45. Cast:
  46. Bradley James ... Carl
  47. Rupert Graves ... David Temple
  48. Lenora Crichlow ... Shania Andrews
  49. Philip Davis ... Brian
  50. Noel Clarke ... Tommy
  51. Lily James ... Lisa Temple
  52. Lorraine Burroughs ... Trix Warren
  53. June Smith ... Athletics Supporter
  54. Tiana Benjamin ... Tara Andrews
  55. Emma Fielding ... Ellie Temple
  56. Glenn Webster ... Maintenance / Cleaner
  57. Paul Blackwell ... Paparazzi
  58. Tim Bentinck ... TV Newsreader
  59. Santi Scinelli ... Press
  60. Richard Herdman ... Security Guard
  61. Stats:
  62. Format : AVI
  63. Format/Info : Audio Video Interleave
  64. File size : 700 MiB
  65. Duration : 1h 27mn
  66. Overall bit rate : 1 122 Kbps
  67. Writing application : VirtualDubMod 1.5.10.2 (build 2540/release)
  68. Writing library : VirtualDubMod build 2540/release
  69. Video
  70. ID : 0
  71. Format : MPEG-4 Visual
  72. Format profile : Advanced Simple@L5
  73. Format settings, BVOP : Yes
  74. Format settings, QPel : No
  75. Format settings, GMC : No warppoints
  76. Format settings, Matrix : Default (H.263)
  77. Muxing mode : Packed bitstream
  78. Codec ID : XVID
  79. Codec ID/Hint : XviD
  80. Duration : 1h 27mn
  81. Bit rate : 947 Kbps
  82. Width : 640 pixels
  83. Height : 272 pixels
  84. Display aspect ratio : 2.35:1
  85. Frame rate : 25.000 fps
  86. Color space : YUV
  87. Chroma subsampling : 4:2:0
  88. Bit depth : 8 bits
  89. Scan type : Progressive
  90. Bits/(Pixel*Frame) : 0.218
  91. Stream size : 591 MiB (84%)
  92. Writing library : XviD 64
  93. Audio
  94. ID : 1
  95. Format : MPEG Audio
  96. Format version : Version 1
  97. Format profile : Layer 3
  98. Mode : Joint stereo
  99. Mode extension : MS Stereo
  100. Codec ID : 55
  101. Codec ID/Hint : MP3
  102. Duration : 1h 27mn
  103. Bit rate mode : Variable
  104. Bit rate : 160 Kbps
  105. Channel(s) : 2 channels
  106. Sampling rate : 48.0 KHz
  107. Stream size : 101 MiB (14%)
  108. Alignment : Aligned on interleaves
  109. Interleave, duration : 24 ms (0.60 video frame)
  110. Interleave, preload duration : 114 ms
  111. Writing library : LAME3.90.
  112. Encoding settings : -m j -V 4 -q 2 -lowpass 18 --abr 160
  113. Release notes:
  114. enjoy!
  115. Looking for:
  116. 75TB+ Archives
  117. DUTCH/FLEMiSH Archives
  118. Greets: CRBS EPiSODE FiCO FLS iLS KLASSiGER LiPSYNC MADE NODLABS RUNNER SPRiNTER
  119. ██████████████████████████████████████████████████████████████████████████████████████████████
  120. ASCII DONE BY XX^NFO 2oo9
  121. RLS-Crc: 415243414445:42EECD90
Comments powered by Disqus