1. TITLE:
  2. Alex Cross 2012 CAM XViD - INSPiRAL
  3. IMDB:
  4. http://www.imdb.com/title/tt1712170/
  5. SOURCES:
  6. VIDEO - HP THANKS
  7. AUDIO - HP THANKS
  8. SUBS - None Add
  9. STATS:
  10. Video
  11. ID : 0
  12. Format : MPEG-4 Visual
  13. Format profile : Advanced Simple@L5
  14. Format settings, BVOP : 2
  15. Format settings, QPel : No
  16. Format settings, GMC : No warppoints
  17. Format settings, Matrix : Default (MPEG)
  18. Muxing mode : Packed bitstream
  19. Codec ID : XVID
  20. Codec ID/Hint : XviD
  21. Duration : 1h 33mn
  22. Bit rate : 1 971 Kbps
  23. Width : 608 pixels
  24. Height : 336 pixels
  25. Display aspect ratio : 16:9
  26. Frame rate : 29.970 fps
  27. Color space : YUV
  28. Chroma subsampling : 4:2:0
  29. Bit depth : 8 bits
  30. Scan type : Progressive
  31. Compression mode : Lossy
  32. Bits/(Pixel*Frame) : 0.322
  33. Stream size : 1.29 GiB (93%)
  34. Writing library : XviD 64
  35. Audio
  36. ID : 1
  37. Format : MPEG Audio
  38. Format version : Version 1
  39. Format profile : Layer 3
  40. Mode : Joint stereo
  41. Mode extension : MS Stereo
  42. Codec ID : 55
  43. Codec ID/Hint : MP3
  44. Duration : 1h 33mn
  45. Bit rate mode : Constant
  46. Bit rate : 128 Kbps
  47. Channel(s) : 2 channels
  48. Sampling rate : 48.0 KHz
  49. Compression mode : Lossy
  50. Stream size : 85.8 MiB (6%)
  51. Alignment : Split accross interleaves
  52. Interleave, duration : 33 ms (1.00 video frame)
  53. Interleave, preload duration : 500 ms
  54. NOTES:
  55. Yet another video from HP ...mans on a roll,thank you.
  56. Video itself was ok,but like all the other ones is of a small res and has faults ..eg black borders,some
  57. cam movement,glares etc..
  58. Audio was decent cam audio ...just needs cleaning a touch.
  59. WORKDONE:
  60. Took the video and first thing was to crop the borders ...did notice half way through the right and bottom
  61. borders got slightly bigger ( 5 pixels roughly ) ..so opted to crop to the lowest border points.
  62. From there i upscaled the video and fixed the bad AR....now doing this makes any faults stand out even more.So
  63. needed to firstly run a HQ smoother on some high settings ( took 10 fooking HRS YIKES ) then i tweaked the colouring,
  64. then moved onto the brightness/contrast/intest ,which helped tone down the glares whilst keeping a decent black contrast.
  65. Finally needed to add some life back into it so used a sharpen filter.
  66. Audio stripped and dropped in AA and then changed the EQ bands ...gave it some more bass,made vocals cleaer and lowered the
  67. hiss.Now the hiss is still there and could be removed totally...but it would have made the audio a tad duller,so opted to leave
  68. it.
  69. Once done it was a case of resaving to mp3 and remuxing to our encode.
  70. Enjoy folks :)
  71. SCREENS:
Comments powered by Disqus