1. General
  2. Unique ID : 254211230607822112274216826073107556297 (0xBF3F4D57EA0545C9989B940546A667C9)
  3. Complete name : D:\Jack Reacher Punto Di Non Ritorno 2016 iTALiAN MD 720p WEBRip R6 x264-FLASH.mkv
  4. Format : Matroska
  5. Format version : Version 4 / Version 2
  6. File size : 2.65 GiB
  7. Duration : 1 h 58 min
  8. Overall bit rate : 3 214 kb/s
  9. Movie name : Jack.Reacher.Punto.Di.Non.Ritorno.2016.iTALiAN.MD.720p.WEBRip.R6.x264-FLASH
  10. Encoded date : UTC 2016-12-30 14:06:17
  11. Writing application : mkvmerge v7.2.0 ('On Every Street') 32bit built on Sep 13 2014 15:42:11
  12. Writing library : libebml v1.3.0 + libmatroska v1.4.1
  13. Video
  14. ID : 1
  15. Format : AVC
  16. Format/Info : Advanced Video Codec
  17. Format profile : [email protected]
  18. Format settings, CABAC : Yes
  19. Format settings, ReFrames : 4 frames
  20. Codec ID : V_MPEG4/ISO/AVC
  21. Duration : 1 h 58 min
  22. Bit rate : 3 099 kb/s
  23. Width : 1 280 pixels
  24. Height : 536 pixels
  25. Display aspect ratio : 2.40:1
  26. Frame rate mode : Constant
  27. Frame rate : 29.970 (30000/1001) FPS
  28. Color space : YUV
  29. Chroma subsampling : 4:2:0
  30. Bit depth : 8 bits
  31. Scan type : Progressive
  32. Bits/(Pixel*Frame) : 0.151
  33. Stream size : 2.55 GiB (96%)
  34. Title : WEBRip R6 720p
  35. Writing library : x264 core 142 r2479 dd79a61
  36. Encoding settings : cabac=1 / ref=1 / deblock=1:0:0 / analyse=0x3:0x113 / me=hex / subme=2 / psy=1 / psy_rd=1.00:0.00 / mixed_ref=0 / me_range=16 / chroma_me=1 / trellis=0 / 8x8dct=1 / cqm=0 / deadzone=21,11 / fast_pskip=1 / chroma_qp_offset=0 / threads=12 / lookahead_threads=4 / sliced_threads=0 / nr=0 / decimate=1 / interlaced=0 / bluray_compat=0 / constrained_intra=0 / bframes=3 / b_pyramid=2 / b_adapt=1 / b_bias=0 / direct=1 / weightb=1 / open_gop=0 / weightp=1 / keyint=300 / keyint_min=30 / scenecut=40 / intra_refresh=0 / rc_lookahead=10 / rc=abr / mbtree=1 / bitrate=3099 / ratetol=1.0 / qcomp=0.60 / qpmin=0 / qpmax=69 / qpstep=4 / vbv_maxrate=62500 / vbv_bufsize=78125 / nal_hrd=none / filler=0 / ip_ratio=1.40 / aq=1:1.00
  37. Language : English
  38. Default : Yes
  39. Forced : No
  40. Color range : Limited
  41. Color primaries : BT.709
  42. Transfer characteristics : BT.709
  43. Matrix coefficients : BT.709
  44. Audio
  45. ID : 2
  46. Format : MPEG Audio
  47. Format version : Version 1
  48. Format profile : Layer 3
  49. Mode : Joint stereo
  50. Mode extension : MS Stereo
  51. Codec ID : A_MPEG/L3
  52. Codec ID/Hint : MP3
  53. Duration : 1 h 58 min
  54. Bit rate mode : Constant
  55. Bit rate : 128 kb/s
  56. Channel(s) : 2 channels
  57. Sampling rate : 48.0 kHz
  58. Frame rate : 41.667 FPS (1152 spf)
  59. Compression mode : Lossy
  60. Delay relative to video : -67 ms
  61. Stream size : 108 MiB (4%)
  62. Title : MD
  63. Language : Italian
  64. Default : Yes
  65. Forced : No
Comments powered by Disqus