1. EXVID
  2. Filled the Archives
  3. With:
  4. E240
  5. SP (C) 2009
  6. 6.Plots.2012.DVDRip.XviD-EXViD
  7. EXViD aims to iNTERNAL those releases which have been lost in the archives.
  8. EXViD aims to PRE non-internal releases which have poor sources and are likely skipped by others.
  9. http://www.imdb.com/title/tt2178915/
  10. Subtitles: NL
  11. Date: 2013.01
  12. Director: Leigh Sheehan
  13. Genres: Thriller
  14. Plot:
  15. Everyone's primal fears of death and how horribly it can play out in your own mind.
  16. Cast:
  17. Alice Darling ... Brie
  18. Ryan Corr ... Marty
  19. Penelope Mitchell ... Jules Freeman
  20. Joey Coley-Sowry ... Kyle Gruper
  21. Emily Wheaton ... Tess Hart
  22. Eliza Taylor ... Amy
  23. Damien Harrison ... Stu Reems
  24. Peter Berzanskis ... Truck Driver
  25. Matt Callan ... Todd
  26. Andrew Clarke ... Gary Hart
  27. Peter Flaherty ... Bill Reems
  28. Saskia Hampele ... Sophie Halms
  29. Dean Kirkright ... Macka
  30. P.J. Lane ... Dane Johnson
  31. Lulu McClatchy ... Nardine Walsh
  32. Stats:
  33. Format : AVI
  34. Format/Info : Audio Video Interleave
  35. File size : 700 MiB
  36. Duration : 1h 26mn
  37. Overall bit rate : 1 131 Kbps
  38. Writing application : VirtualDubMod 1.5.10.2 (build 2540/release)
  39. Writing library : VirtualDubMod build 2540/release
  40. Video
  41. ID : 0
  42. Format : MPEG-4 Visual
  43. Format profile : Advanced Simple@L5
  44. Format settings, BVOP : Yes
  45. Format settings, QPel : No
  46. Format settings, GMC : No warppoints
  47. Format settings, Matrix : Default (H.263)
  48. Muxing mode : Packed bitstream
  49. Codec ID : XVID
  50. Codec ID/Hint : XviD
  51. Duration : 1h 26mn
  52. Bit rate : 994 Kbps
  53. Width : 624 pixels
  54. Height : 352 pixels
  55. Display aspect ratio : 16:9
  56. Frame rate : 25.000 fps
  57. Color space : YUV
  58. Chroma subsampling : 4:2:0
  59. Bit depth : 8 bits
  60. Scan type : Progressive
  61. Bits/(Pixel*Frame) : 0.181
  62. Stream size : 615 MiB (88%)
  63. Writing library : XviD 64
  64. Audio
  65. ID : 1
  66. Format : MPEG Audio
  67. Format version : Version 1
  68. Format profile : Layer 3
  69. Mode : Joint stereo
  70. Mode extension : MS Stereo
  71. Codec ID : 55
  72. Codec ID/Hint : MP3
  73. Duration : 1h 26mn
  74. Bit rate mode : Variable
  75. Bit rate : 128 Kbps
  76. Channel(s) : 2 channels
  77. Sampling rate : 48.0 KHz
  78. Stream size : 76.5 MiB (11%)
  79. Alignment : Aligned on interleaves
  80. Interleave, duration : 24 ms (0.60 video frame)
  81. Interleave, preload duration : 513 ms
  82. Writing library : LAME3.98r
  83. Encoding settings : -m j -V 4 -q 2 -lowpass 17 --abr 128
  84. Release notes:
  85. enjoy!
  86. Looking for:
  87. 75TB+ Archives
  88. DUTCH/FLEMiSH Archives
  89. Greets: CRBS EPiSODE FiCO FLS iLS KLASSiGER LiPSYNC MADE NODLABS RUNNER SPRiNTER
  90. ASCII DONE BY XX^NFO 2oo9
  91. RLS-Crc: 4455535459:029AED9D09
Comments powered by Disqus