1. General
  2. Complete name : E:\Promised.Land.2012.BRRip.XviD-playXD\Promised.Land.2012.BRRip.XviD-playXD.avi
  3. Format : AVI
  4. Format/Info : Audio Video Interleave
  5. File size : 705 MiB
  6. Duration : 1h 46mn
  7. Overall bit rate : 924 Kbps
  8. Writing application : VirtualDubMod 1.5.10.2 (build 2540/release)
  9. Writing library : VirtualDubMod build 2540/release
  10. Video
  11. ID : 0
  12. Format : MPEG-4 Visual
  13. Format profile : Advanced Simple@L5
  14. Format settings, BVOP : 3
  15. Format settings, QPel : Yes
  16. Format settings, GMC : No warppoints
  17. Format settings, Matrix : Default (H.263)
  18. Codec ID : XVID
  19. Codec ID/Hint : XviD
  20. Duration : 1h 46mn
  21. Bit rate : 787 Kbps
  22. Width : 640 pixels
  23. Height : 352 pixels
  24. Display aspect ratio : 16:9
  25. Frame rate : 23.976 fps
  26. Color space : YUV
  27. Chroma subsampling : 4:2:0
  28. Bit depth : 8 bits
  29. Scan type : Progressive
  30. Compression mode : Lossy
  31. Bits/(Pixel*Frame) : 0.146
  32. Stream size : 600 MiB (85%)
  33. Writing library : XviD 1.2.1 (UTC 2008-12-04)
  34. Audio
  35. ID : 1
  36. Format : MPEG Audio
  37. Format version : Version 1
  38. Format profile : Layer 3
  39. Mode : Joint stereo
  40. Codec ID : 55
  41. Codec ID/Hint : MP3
  42. Duration : 1h 46mn
  43. Bit rate mode : Constant
  44. Bit rate : 128 Kbps
  45. Channel(s) : 2 channels
  46. Sampling rate : 48.0 KHz
  47. Compression mode : Lossy
  48. Stream size : 97.6 MiB (14%)
  49. Alignment : Aligned on interleaves
  50. Interleave, duration : 42 ms (1.00 video frame)
  51. Interleave, preload duration : 504 ms
  52. Writing library : LAME3.99r
  53. Encoding settings : -m j -V 4 -q 2 -lowpass 17 -b 128
Comments powered by Disqus