1. [img]http://img822.imageshack.us/img822/2220/gangstersquadver2xlg.jpg[/img]
  2. Genre:Action | Crime | Drama
  3. Language:English
  4. IMDb:http://www.imdb.com/title/tt1321870/
  5. Source:HP Thanks
  6. Encoder:Tony
  7. Format : AVI
  8. Format/Info : Audio Video Interleave
  9. File size : 1.55 GiB
  10. Duration : 1h 43mn
  11. Overall bit rate : 2 132 Kbps
  12. Video
  13. ID : 0
  14. Format : MPEG-4 Visual
  15. Format profile : Advanced Simple@L5
  16. Format settings, BVOP : 1
  17. Format settings, QPel : No
  18. Format settings, GMC : No warppoints
  19. Format settings, Matrix : Default (H.263)
  20. Codec ID : XVID
  21. Codec ID/Hint : XviD
  22. Duration : 1h 43mn
  23. Bit rate : 1 992 Kbps
  24. Width : 640 pixels
  25. Height : 352 pixels
  26. Display aspect ratio : 16:9
  27. Frame rate : 29.970 fps
  28. Color space : YUV
  29. Chroma subsampling : 4:2:0
  30. Bit depth : 8 bits
  31. Scan type : Progressive
  32. Compression mode : Lossy
  33. Bits/(Pixel*Frame) : 0.295
  34. Stream size : 1.45 GiB (93%)
  35. Writing library : XviD 1.2.1 (UTC 2008-12-04)
  36. Audio
  37. ID : 1
  38. Format : MPEG Audio
  39. Format version : Version 1
  40. Format profile : Layer 3
  41. Codec ID : 55
  42. Codec ID/Hint : MP3
  43. Duration : 1h 43mn
  44. Bit rate mode : Constant
  45. Bit rate : 128 Kbps
  46. Channel(s) : 2 channels
  47. Sampling rate : 48.0 KHz
  48. Compression mode : Lossy
  49. Stream size : 95.1 MiB (6%)
  50. Alignment : Aligned on interleaves
  51. Interleave, duration : 33 ms (1.00 video frame)
  52. Interleave, preload duration : 504 ms
  53. Writing library : LAME3.98r
  54. Encoding settings : -m s -V 4 -q 2 -lowpass 17 -b 128
  55. Plot:
  56. Los Angeles, 1949: A secret crew of police officers led by two determined sergeants work together in an effort to take down the ruthless mob king Mickey Cohen who runs the city
  57. TRAILER:
  58. [video=http://www.youtube.com/watch?feature=player_embedded&v=zqKnD-g9QhY]
  59. Greets:
  60. CRYS,INSPiRAL,IMAGINE,LKRG,ADTRG,FXG,3Li,FLAWL3SS,CrEwSaDe,TA,iLLUSiON,EMBER,HOPE,GooN,BBnRG,NOGRP,ETRG,BHRG,iLLUMiNATi,MiSTERE.ViSiON,DTRG SAFCuk009,LU,TheFalcon007,MYSTiC,PrisM,Noir,WBZ,LAP,Rx,Kingdom,SAFCuk009+Fabreezy,HDLiTE,TWiZTED,ETRG.ELEKTRI4KA,MAGNAT,CM8
  61. And to all the other p2p grps past and present
Comments powered by Disqus