1. The Call 2013 TS Real Line x264 AAC-OFFLiNE
  2. iMDB http://www.imdb.com/title/tt1911644
  3. Source 720p UnKnOwN/Tooth Fairy MANY THANKX
  4. Repack Reason - last release had sync issue and wasn't line..Thanks Tooth Fairy Good To Have You Back
  5. Shout Out To Our Syncer For THis Also so enjoy..W
  6. Media Info
  7. The Call 2013 TS RePACK x264 AAC-OFFLiNE.mp4
  8. Format : MPEG-4
  9. Format profile : Base Media
  10. Codec ID : isom
  11. File size : 1.41 GiB
  12. Duration : 1h 32mn
  13. Overall bit rate mode : Variable
  14. Overall bit rate : 2 171 Kbps
  15. Video
  16. ID : 1
  17. Format : AVC
  18. Format/Info : Advanced Video Codec
  19. Format profile : [email protected]
  20. Format settings, CABAC : Yes
  21. Format settings, ReFrames : 3 frames
  22. Format settings, GOP : M=4, N=29
  23. Codec ID : avc1
  24. Codec ID/Info : Advanced Video Coding
  25. Duration : 1h 27mn
  26. Bit rate mode : Variable
  27. Bit rate : 2 174 Kbps
  28. Maximum bit rate : 40.0 Mbps
  29. Width : 720 pixels
  30. Height : 388 pixels
  31. Display aspect ratio : 1.85:1
  32. Frame rate mode : Constant
  33. Frame rate : 29.970 fps
  34. Color space : YUV
  35. Chroma subsampling : 4:2:0
  36. Bit depth : 8 bits
  37. Scan type : Progressive
  38. Bits/(Pixel*Frame) : 0.260
  39. Stream size : 1.33 GiB (95%)
  40. Title : The Call 2013 TS RePACK x264 AAC-OFFLiNE
  41. Writing library : x264 core 130 r2273 b3065e6
  42. Audio
  43. ID : 2
  44. Format : AAC
  45. Format/Info : Advanced Audio Codec
  46. Format profile : LC
  47. Codec ID : 40
  48. Duration : 1h 32mn
  49. Bit rate mode : Variable
  50. Bit rate : 111 Kbps
  51. Maximum bit rate : 142 Kbps
  52. Channel(s) : 2 channels
  53. Channel positions : Front: L R
  54. Sampling rate : 44.1 KHz
  55. Compression mode : Lossy
  56. Delay relative to video : 18s 300ms
  57. Stream size : 73.6 MiB (5%)
  58. Title : synced
  59. Language : English
  60. Screens
  61. P.S. Eat This !! 2 Slice Hilly..Love, BB
  62. Greetz
  63. THC, PA, HELLRAZ0R, TRiNiTY, FLAWL3SS, FraMeSToR, many more, and all our friends
Comments powered by Disqus