1. ÜÛÛÛÛÛÛÛÛÛÛÛÛÛÛÛÛÛÛÛÛÛÛÛÛÛÛÛÛÛÛÛÛÛÛÛÛÛÛÛÛÛÛÛÛÛÛÛÛÛÛÛÛÛÛÛÛÛÛÛÛÛÛÛÛÛÛÛÛÛÛÛÛÛÛÛÛÛÛÛÛÛÛÛÛÛÛÛÛÛÛÜ
  2. ÛÛÛÛÛÛÛÛÛÛÛÛÛÛÛÛÛÛÛÛÛÛÛÛÛÛÛÛÛÛÛÛÛÛÛÛÛÛÛÛÛÛÛÛÛÛÛÛÛÛÛÛÛÛÛÛÛÛÛÛÛÛÛÛÛÛÛÛÛÛÛÛÛÛÛÛÛÛÛÛÛÛÛÛÛÛÛÛÛÛÛÛÛÛ
  3. ÛÛÛÛÛÛÛÛÛÛÛÛÛÛÛÛÛÛÛÛÛÛÛÛÛÛÛÛÛÛÛÛÛÛÛÛÛÛÛÛÛÛÛÛÛÛÛÛÛÛÛÛÛÛÛÛÛÛÛÛÛÛÛÛÛÛÛÛÛÛÛÛÛÛÛÛÛÛÛÛÛÛÛÛÛÛÛÛÛÛÛÛÛÛ
  4. Û ÜÜÜÜÜÜÜÜÜÜÜÜÜÜÜÜÜÜÜÜÜÜÜÜÜÜÜÜÜÜÜÜÜÜÜÜÜÜÜÜÜÜÜÜÜÜÜÜÜÜÜÜÜÜÜÜÜÜÜÜÜÜÜÜÜÜÜÜÜÜÜÜÜÜÜÜÜÜÜÜÜÜÜÜÜÜÜÜÜÜ Û
  5. Û ÛÛÛÛÛÛÛÛÛÛÛÛÛÛÛÛÛÛÛÛÛÛÛÛÛÛÛÛÛÛÛÛÛÛÛÛÛÛÛÛÛÛÛÛÛÛÛÛÛÛÛÛÛÛÛÛÛÛÛÛÛÛÛÛÛÛÛÛÛÛÛÛÛÛÛÛÛÛÛÛÛÛÛÛÛÛÛÛÛÛ Û
  6. ÜÜÛÛÛÛÛÛÛÛÛÛÛÛÛÛÛÛÛÛÛÛÛÛÛÛÛÛÛÛÛÛÛÛÛÛÛÛÛÛÛÛÛÛÛÛÛÛÛÛÛÛÛÛÛÛÛÛÛÛÛÛÛÛÛÛÛÛÛÛÛÛÛÛÛÛÛÛÛÛÛÛÛÛÛÛÛÛÛÛÛÛÜÜ
  7. ÛÛÛÛÛÛÛÛÛÛÛÛÛÛÛÛÛÛÛÛÛÛÛÛÛÛÛÛÛÛÛÛÛÛÛÛÛÛÛÛÛÛÛÛÛÛÛÛÛÛÛÛÛÛÛÛÛÛÛÛÛÛÛÛÛÛÛÛÛÛÛÛÛÛÛÛÛÛÛÛÛÛÛÛÛÛÛÛÛÛÛÛÛÛ
  8. ÛÛÛÛÛÛÛÛÛ°°°°°°°°°°°°°°°°ÛÛÛÛ ÛÛÛÛ°°°°°°°°°°°°°°°°ÛÛÛÛÛÛÛÛÛ
  9. ÛÛÛÛÛÛÛÛ°°°°°°°°°°°°°°°°°ÛÛÛÛ ÛÛÛÛ°°°°°°°°°°°°°°°°°ÛÛÛÛÛÛÛÛ
  10. ÛÛÛÛÛÛÛ°°°°°°°°°°°°°°°°°°ÛÛÛÛ EXVID ÛÛÛÛ°°°°°°°°°°°°°°°°°°ÛÛÛÛÛÛÛ
  11. ÛÛÛÛÛÛÛ°°°°°°°°°°°°°°ÛÛÛÛÛÛÛÛ ÛÛÛÛÛÛÛÛ°°°°°°°°°°°°°°ÛÛÛÛÛÛÛ
  12. ÛÛÛÛÛÛÛ°°°°°°°°°°°°°ÛÛÛÛÛÛÛÛÛ ßßßßßßßßßßßßßßßßßßßßßßßßßßßßßßßß ÛÛÛÛÛÛÛÛÛ°°°°°°°°°°°°°ÛÛÛÛÛÛÛ
  13. ÛÛÛÛÛÛ°°°°°°°°°°°°°ÛÛÛÛÛÛÛÛÛÛ ÛÛÛÛÛÛÛÛÛÛ°°°°°°°°°°°°°ÛÛÛÛÛÛ
  14. ÛÛÛÛÛÛ°°°°°°°°°°°°ÛÛÛÛÛÛÛÛÛÛÛ Filled the Archives ÛÛÛÛÛÛÛÛÛÛÛ°°°°°°°°°°°°ÛÛÛÛÛÛ
  15. ÛÛÛÛÛÛ°°°°°°°°°°°°ÛÛÛÛÛÛÛÛÛÛÛ ÛÛÛÛÛÛÛÛÛÛÛ°°°°°°°°°°°°ÛÛÛÛÛÛ
  16. ÛÛÛÛÛÛ°°°°°°°°°°°°ÛÛÛÛÛÛÛÛÛÛÛ ßßßßßßßßßßßßßßßßßßßßßßßßßßßßßßßß ÛÛÛÛÛÛÛÛÛÛÛ°°°°°°°°°°°°ÛÛÛÛÛÛ
  17. ÛÛÛÛÛÛ°°°°°°°°°°°°ÛÛÛÛÛÛÛÛÛÛÛ ÛÛÛÛÛÛÛÛÛÛÛ°°°°°°°°°°°°ÛÛÛÛÛÛ
  18. ÛÛÛÛÛÛ°°°°°°°°°°°°ÛÛÛÛÛÛÛÛÛÛÛ With: ÛÛÛÛÛÛÛÛÛÛÛ°°°°°°°°°°°°ÛÛÛÛÛÛ
  19. ÛÛÛÛÛÛ°°°°°°°°°°°°ÛÛÛÛÛÛÛÛÛÛÛ ÛÛÛÛÛÛÛÛÛÛÛ°°°°°°°°°°°°ÛÛÛÛÛÛ
  20. ÛÛÛÛÛÛ°°°°°°°°°°°°ÛÛÛÛÛÛÛÛÛÛÛ ßßßßßßßßßßßßßßßßßßßßßßßßßßßßßßßß ÛÛÛÛÛÛÛÛÛÛÛ°°°°°°°°°°°°ÛÛÛÛÛÛ
  21. ÛÛÛÛÛÛÛ°°°°°°°°°°°°ÛÛÛÛÛÛÛÛÛÛ ÛÛÛÛÛÛÛÛÛÛ°°°°°°°°°°°°ÛÛÛÛÛÛÛ
  22. ÛÛÛÛÛÛÛ°°°°°°°°°°°°°ÛÛÛÛÛÛÛÛÛ ² ²²²² ÛÛÛÛÛÛÛÛÛ°°°°°°°°°°°°°ÛÛÛÛÛÛÛ
  23. ÛÛÛÛÛÛÛ°°°°°°°°°°°°°°ÛÛÛÛÛÛÛÛ ²² ²²² E240 ÛÛÛÛÛÛÛÛ°°°°°°°°°°°°°°ÛÛÛÛÛÛÛ
  24. ÛÛÛÛÛÛÛ°°°°°°°°°°°°°°°°°°ÛÛÛÛ ²²² ²² ÛÛÛÛ°°°°°°°°°°°°°°°°°°ÛÛÛÛÛÛÛ
  25. ÛÛÛÛÛÛÛÛ°°°°°°°°°°°°°°°°°ÛÛÛÛ ²²²² ² SP (C) 2009 ÛÛÛÛ°°°°°°°°°°°°°°°°°ÛÛÛÛÛÛÛÛ
  26. ÛÛÛÛÛÛÛÛÛ°°°°°°°°°°°°°°°°ÛÛÛÛ ÛÛÛÛ°°°°°°°°°°°°°°°°ÛÛÛÛÛÛÛÛÛ
  27. ÛÛÛÛÛÛÛÛÛÛÛÛÛÛÛÛÛÛÛÛÛÛÛÛÛÛÛÛÛÛÛÛÛÛÛÛÛÛÛÛÛÛÛÛÛÛÛÛÛÛÛÛÛÛÛÛÛÛÛÛÛÛÛÛÛÛÛÛÛÛÛÛÛÛÛÛÛÛÛÛÛÛÛÛÛÛÛÛÛÛÛÛÛÛ
  28. ÛÛÛÛÛÛÛÛÛÛÛÛÛÛÛÛÛÛÛÛÛÛÛÛÛÛÛÛÛÛÛÛÛÛÛÛÛÛÛÛÛÛÛÛÛÛÛÛÛÛÛÛÛÛÛÛÛÛÛÛÛÛÛÛÛÛÛÛÛÛÛÛÛÛÛÛÛÛÛÛÛÛÛÛÛÛÛÛÛÛÛÛÛÛ
  29. ÛÛÛÛÛÛÛÛÛÛÛÛÛÛÛÛÛÛÛÛÛÛÛÛÛÛÛÛÛÛÛÛÛÛÛÛÛÛÛÛÛÛÛÛÛÛÛÛÛÛÛÛÛÛÛÛÛÛÛÛÛÛÛÛÛÛÛÛÛÛÛÛÛÛÛÛÛÛÛÛÛÛÛÛÛÛÛÛÛÛÛÛÛÛ
  30. ÛÛÛÛßÛÛÛÛÛÛÛ ÛÛÛÛÛ
  31. ÛÛÛÛÜÛÛÛÛÛÛÛ ÛÛÛÛ
  32. ÛÛÛÛÛÛÛÛÛÛÛÛ The.Girl.And.Death.2012.FESTiVAL.DVDRip.XviD-EXViD ÛÛÛ
  33. ÛÛÛÛÛÛÛÛÛÛÛÛ ÛÛÛÛ
  34. ÛÛÛÛÛÛÛÛÛÛÛÛ ÛÛÛÛÛ
  35. ÛÛÛÛÛÛÛÛÛÛÛÛÛÛÛÛÛÛÛÛÛÛÛÛÛÛÛÛÛÛÛÛÛÛÛÛÛÛÛÛÛÛÛÛÛÛÛÛÛÛÛÛÛÛÛÛÛÛÛÛÛÛÛÛÛÛÛÛÛÛÛÛÛÛÛÛÛÛÛÛÛÛÛÛÛÛÛÛÛÛÛÛÛÛ
  36. EXViD aims to iNTERNAL those releases which have been lost in the archives.
  37. EXViD aims to PRE non-internal releases which have poor sources and are likely skipped by others.
  38. http://www.imdb.com/title/tt2103171/
  39. Subtitles: NL, EN
  40. Date: 2013.04
  41. Director: Jos Stelling
  42. Genres: Drama | Romance
  43. Plot:
  44. The film, based on an original script by Jos Stelling and Bert Rijkelijkhuizen, tells the story
  45. of the Russian physician Nicolai who returns to an old hotel, the place where he first met his
  46. great love half a century ago, and relives his romantic tragedy. A large part of the film is set
  47. in the late nineteenth century and is situated in a abandoned hotel/sanatorium in Tannenfeld,
  48. Thuringia (formerly East Germany), where most of the recordings also took place. The hotel still
  49. has traces of an impressive past. Eventually it becomes clear why he really has returned.
  50. Cast:
  51. Sylvia Hoeks ... Elise
  52. Dieter Hallervorden ... Der Graf
  53. Renata Litvinova ... Nina
  54. Sergey Makovetskiy ... Old Nicolai
  55. Jim van der Woude ... Bell-boy
  56. Henri Garcin ... Marcus
  57. Maxim Kovalevski ... Bruno
  58. Eva-Maria Kurz ... The old actress
  59. Leonid Bichevin ... Nicolai
  60. Svetlana Svetlichnaya ... Old Nina
  61. Paul Schlase ... Waiter #1
  62. Dmitry Brauer ... Customs Officer
  63. Ulrich Anschütz
  64. Joost Spijkers ... Singer
  65. Friederike Frerichs
  66. Stats:
  67. Format : AVI
  68. Format/Info : Audio Video Interleave
  69. File size : 701 MiB
  70. Duration : 2h 2mn
  71. Overall bit rate : 804 Kbps
  72. Writing application : VirtualDubMod 1.5.10.2 (build 2540/release)
  73. Writing library : VirtualDubMod build 2540/release
  74. Video
  75. ID : 0
  76. Format : MPEG-4 Visual
  77. Format profile : Advanced Simple@L5
  78. Format settings, BVOP : Yes
  79. Format settings, QPel : No
  80. Format settings, GMC : No warppoints
  81. Format settings, Matrix : Default (H.263)
  82. Muxing mode : Packed bitstream
  83. Codec ID : XVID
  84. Codec ID/Hint : XviD
  85. Duration : 2h 2mn
  86. Bit rate : 666 Kbps
  87. Width : 640 pixels
  88. Height : 272 pixels
  89. Display aspect ratio : 2.35:1
  90. Frame rate : 25.000 fps
  91. Color space : YUV
  92. Chroma subsampling : 4:2:0
  93. Bit depth : 8 bits
  94. Scan type : Progressive
  95. Bits/(Pixel*Frame) : 0.153
  96. Stream size : 582 MiB (83%)
  97. Writing library : XviD 64
  98. Audio
  99. ID : 1
  100. Format : MPEG Audio
  101. Format version : Version 1
  102. Format profile : Layer 3
  103. Mode : Joint stereo
  104. Mode extension : MS Stereo
  105. Codec ID : 55
  106. Codec ID/Hint : MP3
  107. Duration : 2h 2mn
  108. Bit rate mode : Variable
  109. Bit rate : 125 Kbps
  110. Minimum bit rate : 128 Kbps
  111. Channel(s) : 2 channels
  112. Sampling rate : 48.0 KHz
  113. Stream size : 109 MiB (15%)
  114. Alignment : Aligned on interleaves
  115. Interleave, duration : 24 ms (0.60 video frame)
  116. Interleave, preload duration : 484 ms
  117. Writing library : LAME4.0a
  118. Encoding settings : -m j -V 4 -q 5 -lowpass 17.5 --vbr-old -b 128
  119. Release notes:
  120. This one compressed very well!
  121. enjoy!
  122. Looking for:
  123. 75TB+ Archives
  124. DUTCH/FLEMiSH Archives
  125. Greets: CRBS EPiSODE FiCO FLS iLS KLASSiGER LiPSYNC MADE NODLABS RUNNER SPRiNTER
  126. ÛÛÛÛÛÛÛÛÛÛÛÛÛÛÛÛÛÛÛÛÛÛÛÛÛÛÛÛÛÛÛÛÛÛÛÛÛÛÛÛÛÛÛÛÛÛÛÛÛÛÛÛÛÛÛÛÛÛÛÛÛÛÛÛÛÛÛÛÛÛÛÛÛÛÛÛÛÛÛÛÛÛÛÛÛÛÛÛÛÛÛÛÛÛ
  127. ASCII DONE BY XX^NFO 2oo9
Comments powered by Disqus