1. ▄██████████████████████████████████████████████████████████████████████████████████████████▄
  2. ██████████████████████████████████████████████████████████████████████████████████████████████
  3. ██████████████████████████████████████████████████████████████████████████████████████████████
  4. █ ▄▄▄▄▄▄▄▄▄▄▄▄▄▄▄▄▄▄▄▄▄▄▄▄▄▄▄▄▄▄▄▄▄▄▄▄▄▄▄▄▄▄▄▄▄▄▄▄▄▄▄▄▄▄▄▄▄▄▄▄▄▄▄▄▄▄▄▄▄▄▄▄▄▄▄▄▄▄▄▄▄▄▄▄▄▄▄▄▄▄ █
  5. █ ██████████████████████████████████████████████████████████████████████████████████████████ █
  6. ▄▄██████████████████████████████████████████████████████████████████████████████████████████▄▄
  7. ██████████████████████████████████████████████████████████████████████████████████████████████
  8. █████████░░░░░░░░░░░░░░░░████ ████░░░░░░░░░░░░░░░░█████████
  9. ████████░░░░░░░░░░░░░░░░░████ ████░░░░░░░░░░░░░░░░░████████
  10. ███████░░░░░░░░░░░░░░░░░░████ EXVID ████░░░░░░░░░░░░░░░░░░███████
  11. ███████░░░░░░░░░░░░░░████████ ████████░░░░░░░░░░░░░░███████
  12. ███████░░░░░░░░░░░░░█████████ ▀▀▀▀▀▀▀▀▀▀▀▀▀▀▀▀▀▀▀▀▀▀▀▀▀▀▀▀▀▀▀▀ █████████░░░░░░░░░░░░░███████
  13. ██████░░░░░░░░░░░░░██████████ ██████████░░░░░░░░░░░░░██████
  14. ██████░░░░░░░░░░░░███████████ Filled the Archives ███████████░░░░░░░░░░░░██████
  15. ██████░░░░░░░░░░░░███████████ ███████████░░░░░░░░░░░░██████
  16. ██████░░░░░░░░░░░░███████████ ▀▀▀▀▀▀▀▀▀▀▀▀▀▀▀▀▀▀▀▀▀▀▀▀▀▀▀▀▀▀▀▀ ███████████░░░░░░░░░░░░██████
  17. ██████░░░░░░░░░░░░███████████ ███████████░░░░░░░░░░░░██████
  18. ██████░░░░░░░░░░░░███████████ With: ███████████░░░░░░░░░░░░██████
  19. ██████░░░░░░░░░░░░███████████ ███████████░░░░░░░░░░░░██████
  20. ██████░░░░░░░░░░░░███████████ ▀▀▀▀▀▀▀▀▀▀▀▀▀▀▀▀▀▀▀▀▀▀▀▀▀▀▀▀▀▀▀▀ ███████████░░░░░░░░░░░░██████
  21. ███████░░░░░░░░░░░░██████████ ██████████░░░░░░░░░░░░███████
  22. ███████░░░░░░░░░░░░░█████████ ▓ ▓▓▓▓ █████████░░░░░░░░░░░░░███████
  23. ███████░░░░░░░░░░░░░░████████ ▓▓ ▓▓▓ E240 ████████░░░░░░░░░░░░░░███████
  24. ███████░░░░░░░░░░░░░░░░░░████ ▓▓▓ ▓▓ ████░░░░░░░░░░░░░░░░░░███████
  25. ████████░░░░░░░░░░░░░░░░░████ ▓▓▓▓ ▓ SP (C) 2009 ████░░░░░░░░░░░░░░░░░████████
  26. █████████░░░░░░░░░░░░░░░░████ ████░░░░░░░░░░░░░░░░█████████
  27. ██████████████████████████████████████████████████████████████████████████████████████████████
  28. ██████████████████████████████████████████████████████████████████████████████████████████████
  29. ██████████████████████████████████████████████████████████████████████████████████████████████
  30. ████▀███████ █████
  31. ████▄███████ ████
  32. ████████████ Killing.Them.Softly.2012.BDRip.XviD-EXViD ███
  33. ████████████ ████
  34. ████████████ █████
  35. ██████████████████████████████████████████████████████████████████████████████████████████████
  36. EXViD aims to iNTERNAL those releases which have been lost in the archives.
  37. EXViD aims to PRE non-internal releases which have poor sources and are likely skipped by others.
  38. http://www.imdb.com/title/tt1764234/
  39. Subtitles: NL, FR
  40. Date: 2013.01
  41. Director: Andrew Dominik
  42. Genres: Crime | Drama | Thriller
  43. Plot:
  44. Three amateurs stickup a Mob protected card game, causing the local criminal economy to collapse.
  45. Brad Pitt plays the hitman hired to track them down and restore order. Killing Them Softly also
  46. features Richard Jenkins , James Gandolfini, Ray Liotta, Scoot McNairy, Ben Mendelsohn,
  47. and Vincent Curatola. Max Casella, Trevor Long, Slaine and Sam Shepard also make appearances.
  48. Cast:
  49. Brad Pitt ... Jackie
  50. Scoot McNairy ... Frankie
  51. Ben Mendelsohn ... Russell
  52. James Gandolfini ... Mickey
  53. Richard Jenkins ... Driver
  54. Vincent Curatola ... Johnny Amato
  55. Ray Liotta ... Markie Trattman
  56. Trevor Long ... Steve Caprio
  57. Max Casella ... Barry Caprio
  58. Sam Shepard ... Dillon
  59. Slaine ... Kenny Gill
  60. Linara Washington ... Hooker
  61. Ross Brodar ... Poker Guy
  62. Wade Allen ... Business Suit Agent
  63. Christopher Berry ... Cab Driver Agent
  64. Stats:
  65. Format : AVI
  66. Format/Info : Audio Video Interleave
  67. File size : 701 MiB
  68. Duration : 1h 37mn
  69. Overall bit rate : 1 007 Kbps
  70. Writing application : VirtualDubMod 1.5.10.2 (build 2540/release)
  71. Writing library : VirtualDubMod build 2540/release
  72. Video
  73. ID : 0
  74. Format : MPEG-4 Visual
  75. Format profile : Advanced Simple@L5
  76. Format settings, BVOP : Yes
  77. Format settings, QPel : No
  78. Format settings, GMC : No warppoints
  79. Format settings, Matrix : Default (H.263)
  80. Muxing mode : Packed bitstream
  81. Codec ID : XVID
  82. Codec ID/Hint : XviD
  83. Duration : 1h 37mn
  84. Bit rate : 874 Kbps
  85. Width : 640 pixels
  86. Height : 272 pixels
  87. Display aspect ratio : 2.35:1
  88. Frame rate : 23.976 fps
  89. Color space : YUV
  90. Chroma subsampling : 4:2:0
  91. Bit depth : 8 bits
  92. Scan type : Progressive
  93. Bits/(Pixel*Frame) : 0.209
  94. Stream size : 608 MiB (87%)
  95. Writing library : XviD 64
  96. Audio
  97. ID : 1
  98. Format : MPEG Audio
  99. Format version : Version 1
  100. Format profile : Layer 3
  101. Mode : Joint stereo
  102. Codec ID : 55
  103. Codec ID/Hint : MP3
  104. Duration : 1h 37mn
  105. Bit rate mode : Variable
  106. Bit rate : 120 Kbps
  107. Minimum bit rate : 128 Kbps
  108. Channel(s) : 2 channels
  109. Sampling rate : 48.0 KHz
  110. Stream size : 83.5 MiB (12%)
  111. Alignment : Aligned on interleaves
  112. Interleave, duration : 24 ms (0.58 video frame)
  113. Interleave, preload duration : 505 ms
  114. Writing library : LAME4.0a
  115. Encoding settings : -m j -V 4 -q 5 -lowpass 17.5 --vbr-old -b 128
  116. Release notes:
  117. Retail RB bluray.
  118. enjoy!
  119. Looking for:
  120. 75TB+ Archives
  121. DUTCH/FLEMiSH Archives
  122. Greets: CRBS EPiSODE FiCO FLS iLS KLASSiGER LiPSYNC MADE NODLABS RUNNER SPRiNTER
  123. ██████████████████████████████████████████████████████████████████████████████████████████████
  124. ASCII DONE BY XX^NFO 2oo9
Comments powered by Disqus