1. Side Effects R5 NEW FULL AUDiO READNFO XViD - JUSTiCE
  2. SOURCE : russian dvd5 / A friend
  3. Video and audio both cleaned and given justice.
  4. Check sample and see.....
  5. Video....not that great compared to alot of R5's but still nice.
  6. Need the normal stuff doing to it,to correct the colours and contrast balance aswell
  7. as some live adding to it.
  8. Audio was done by an old friend and heres his notes :
  9. Audio notes...
  10. We got our hands on new cam audio sors which is complete btw.
  11. Audio had its usual issues - noise, crackle, clicks etc.
  12. Firstly we cleand audio to our liking and then decided to go different way. The way audio wasnt done before.
  13. We killed as much music as possible in the audio to be left only with voices.
  14. Its impossible to kill music completely and get only voice (if you dont have exact same audio only with music),
  15. so we had to change our plan a lil bit.
  16. We cut center channel from russain studio audio and didnt replace it with our fitered cam audio,
  17. but chopped it in many places where there was russian speaking and replaced those speaking parts with eng speaking.
  18. This way we avoided sync issues with music from cam audio and russian audio and also music you will hear is studio clear ;)
  19. As we mentioned above, audio wasnt done this way before, so take it that way.
  20. We did what we could to bring you as best sounding audio as possible.
  21. Oh, and its original 6 channel audio, no upscale from mono/sterero. If you dont believe it, open it in desired program :P
  22. Video
  23. ID : 0
  24. Format : MPEG-4 Visual
  25. Format profile : Advanced Simple@L5
  26. Format settings, BVOP : 2
  27. Format settings, QPel : No
  28. Format settings, GMC : No warppoints
  29. Format settings, Matrix : Default (MPEG)
  30. Muxing mode : Packed bitstream
  31. Codec ID : XVID
  32. Codec ID/Hint : XviD
  33. Duration : 1h 41mn
  34. Bit rate : 1 905 Kbps
  35. Width : 720 pixels
  36. Height : 384 pixels
  37. Display aspect ratio : 1.875
  38. Frame rate : 25.000 fps
  39. Color space : YUV
  40. Chroma subsampling : 4:2:0
  41. Bit depth : 8 bits
  42. Scan type : Progressive
  43. Compression mode : Lossy
  44. Bits/(Pixel*Frame) : 0.276
  45. Stream size : 1.36 GiB (81%)
  46. Writing library : XviD 64
  47. Audio
  48. ID : 1
  49. Format : AC-3
  50. Format/Info : Audio Coding 3
  51. Mode extension : CM (complete main)
  52. Codec ID : 2000
  53. Duration : 1h 41mn
  54. Bit rate mode : Constant
  55. Bit rate : 448 Kbps
  56. Channel(s) : 6 channels
  57. Channel positions : Front: L C R, Side: L R, LFE
  58. Sampling rate : 44.1 KHz
  59. Bit depth : 16 bits
  60. Compression mode : Lossy
  61. Stream size : 325 MiB (19%)
  62. Alignment : Split accross interleaves
  63. Interleave, duration : 40 ms (1.00 video frame)
  64. Interleave, preload duration : 500 ms
  65. screenies below show the before and after stuff so :)
  66. [IMG]http://lookpic.com/O/i2/1237/IdqCQ6Lr.png[/IMG]
  67. [IMG]http://lookpic.com/O/i2/111/nT38leT5.png[/IMG]
  68. [IMG]http://lookpic.com/O/i2/443/vryCKvlO.png[/IMG]
  69. Rest from encode :
  70. [IMG]http://lookpic.com/O/i2/983/whm3JG2.png[/IMG]
  71. [IMG]http://lookpic.com/O/i2/40/Wi2YiRi0.png[/IMG]
  72. [IMG]http://lookpic.com/O/i2/710/rQjHwaU.png[/IMG]
Comments powered by Disqus