1. [img]http://img526.imageshack.us/img526/546/linesofwellin.jpg[/img]
  2. Lines.Of.Wellington.2012.DVDRip.XViD.Une-CM8
  3. English Subs When Needed
  4. http://www.imdb.com/title/tt1928329/
  5. General
  6. Complete name : Lines.Of.Wellington.2012.DVDRip.XViD.Une-CM8.avi
  7. Format : AVI
  8. Format/Info : Audio Video Interleave
  9. File size : 1.60 GiB
  10. Duration : 2h 25mn
  11. Overall bit rate : 1 572 Kbps
  12. Writing application : VirtualDubMod 1.5.4.1 (build 2178/release)
  13. Writing library : VirtualDubMod build 2178/release
  14. Video
  15. ID : 0
  16. Format : MPEG-4 Visual
  17. Format profile : Advanced Simple@L5
  18. Format settings, BVOP : 1
  19. Format settings, QPel : No
  20. Format settings, GMC : No warppoints
  21. Format settings, Matrix : Custom
  22. Codec ID : XVID
  23. Codec ID/Hint : XviD
  24. Duration : 2h 25mn
  25. Bit rate : 1 117 Kbps
  26. Width : 720 pixels
  27. Height : 320 pixels
  28. Display aspect ratio : 2.25:1
  29. Frame rate : 25.000 fps
  30. Color space : YUV
  31. Chroma subsampling : 4:2:0
  32. Bit depth : 8 bits
  33. Scan type : Progressive
  34. Compression mode : Lossy
  35. Bits/(Pixel*Frame) : 0.194
  36. Stream size : 1.14 GiB (71%)
  37. Writing library : XviD 1.2.1 (UTC 2008-12-04)
  38. Audio
  39. ID : 1
  40. Format : AC-3
  41. Format/Info : Audio Coding 3
  42. Mode extension : CM (complete main)
  43. Format settings, Endianness : Big
  44. Codec ID : 2000
  45. Duration : 2h 25mn
  46. Bit rate mode : Constant
  47. Bit rate : 448 Kbps
  48. Channel(s) : 6 channels
  49. Channel positions : Front: L C R, Side: L R, LFE
  50. Sampling rate : 48.0 KHz
  51. Bit depth : 16 bits
  52. Compression mode : Lossy
  53. Stream size : 466 MiB (28%)
  54. Alignment : Split accross interleaves
  55. Interleave, duration : 96 ms (2.40 video frames)
  56. Interleave, preload duration : 96 ms
  57. Language : English
  58. After conquering Spain, Napoleon Bonaparte sent a powerful army to invade Portugal in 1810. The French plowed through the resistance mounted against them until, as they approached Lisbon, they were met by a combined British and Portuguese army under the command of the Viscount Wellington. ThatÆs the general historical outline for Valeria SarmientoÆs extraordinarily intimate epic of the Peninsular War. Along the way, we witness love affairs and treachery, noble action and selfish cruelty, from the highest social echelons to the most humble quarters.
  59. Nuno Lopes ... Sargento Francisco Xavier
  60. Soraia Chaves ... Martirio
  61. Marisa Paredes ... D. Filipa Sanches
  62. John Malkovich ... General Wellington
  63. [img]http://img713.imageshack.us/img713/1488/vlcsnap00001mb.png[/img]
  64. [img]http://img571.imageshack.us/img571/2743/vlcsnap00002jz.png[/img]
  65. [img]http://img843.imageshack.us/img843/7189/vlcsnap00003m.png[/img]
  66. [img]http://img507.imageshack.us/img507/6622/vlcsnap00004d.png[/img]
  67. [img]http://img547.imageshack.us/img547/2640/vlcsnap00005tr.png[/img]
  68. [video=http://www.youtube.com/watch?v=CIx-104PYYg]
Comments powered by Disqus