1. Video
  2. ID : 0
  3. Format : MPEG-4 Visual
  4. Format profile : Advanced [email protected]
  5. Format settings, BVOP : 2
  6. Format settings, QPel : No
  7. Format settings, GMC : No warppoints
  8. Format settings, Matrix : Default (H.263)
  9. Muxing mode : Packed bitstream
  10. Codec ID : XVID
  11. Codec ID/Hint : XviD
  12. Duration : 1 h 39 min
  13. Bit rate : 3 187 kb/s
  14. Width : 1 280 pixels
  15. Height : 544 pixels
  16. Display aspect ratio : 2.35:1
  17. Frame rate : 30.000 FPS
  18. Color space : YUV
  19. Chroma subsampling : 4:2:0
  20. Bit depth : 8 bits
  21. Scan type : Progressive
  22. Compression mode : Lossy
  23. Bits/(Pixel*Frame) : 0.153
  24. Stream size : 2.21 GiB (96%)
  25. Writing library : XviD 73
  26. Audio
  27. ID : 1
  28. Format : AC-3
  29. Format/Info : Audio Coding 3
  30. Mode extension : CM (complete main)
  31. Format settings, Endianness : Big
  32. Codec ID : 2000
  33. Duration : 1 h 39 min
  34. Bit rate mode : Constant
  35. Bit rate : 128 kb/s
  36. Channel(s) : 2 channels
  37. Channel positions : Front: L R
  38. Sampling rate : 48.0 kHz
  39. Frame rate : 31.250 FPS (1536 spf)
  40. Compression mode : Lossy
  41. Stream size : 90.8 MiB (4%)
  42. Alignment : Aligned on interleaves
  43. Interleave, duration : 33 ms (1.00 video frame)
  44. Interleave, preload duration : 512 ms
Comments powered by Disqus