1. XViD is DEAD, Embrace the almighty x264!
  2. , ri
  3. .@M H@i,,,,,,;@@@@: ...
  4. @@:r@@@@@@@@@@@@@##@@@@@@@@@@@@@@@@@@@@@@@@@@@@@@@@@@@@2
  5. M@@@@#BB###MM###MHA@@@#M########A&&AB#@@@@@@@@@@@@@@@@@@@@.
  6. 22;,9#AGG&h2#@@;hBs:,:##M;,,i@@BAGBAABMBBBBMHHHBMM################@@@@@:. ....... .. ...............:.
  7. @@@@@@@@@@@@#M@#@MhMMA&GAAHBHMHh&GHBMHBMMMMM##MMBMBMM#BBHHBBBBBBHBBM#@@@@@M@@@@@@@@@@@@@@@@@@@@@@@@@@@@@A
  8. :, :r;::::, &@AAAAAAAHBBHHHHBM#@@#@@@@#MAGABBBHH&3###MMMBABBHHBMH@B@A@@@.is,:;;;;;;;;;;;;;;;:;;:::9@h
  9. :,,........,;SHBh#AsXGi5MAAH&A#M#A3A2&AM@AB#MBHHBBBB#@@HBMh,S. ,@A
  10. ##G##MBBM@#@ B 2@BHHHB#A ,::rBMB@@@@@H2r, :@A
  11. @MA@###@h:@@ 5@@#MBM#; .;i9#@@@@@@A2r, @M
  12. :@BM@@##@r ;.. . :X@#HB#. .:s3M@@@@@@#3r. @@
  13. 9@&#@###@ B@MM@@ :r3#@@@@@@5
  14. @@&@###@M @@#@@M .:rAS
  15. r@HM@###@r :@##@@2
  16. @@A@@##@@ i###@@i
  17. ;@M#@###@2 ,@@@#Bs
  18. @@#@###@@ r,
  19. H@#@@###@s
  20. S@@@####@#
  21. 2@@@@###@@
  22. #@@@@@##@,
  23. ;M@@@@2
  24. i@@
  25. AKS74u
  26. Presents
  27. ------------------------------------------------------------------------------------------------------------------------------
  28. Source: |Blu-Ray|
  29. Subtitle(s): None
  30. http://www.imdb.com/title/tt1525366/
  31. General
  32. Complete name : Grabbers.2012.BDRip.AAC-2.0.x264-AKS74u\grabbers-bdrip-aks74u.mp4
  33. Format : MPEG-4
  34. Format profile : Base Media
  35. Codec ID : isom
  36. File size : 560 MiB
  37. Duration : 1h 33mn
  38. Overall bit rate mode : Variable
  39. Overall bit rate : 835 Kbps
  40. Encoded date : UTC 2012-12-03 22:24:02
  41. Tagged date : UTC 2012-12-03 22:24:02
  42. Video
  43. ID : 1
  44. Format : AVC
  45. Format/Info : Advanced Video Codec
  46. Format profile : [email protected]
  47. Format settings, CABAC : Yes
  48. Format settings, ReFrames : 5 frames
  49. Codec ID : avc1
  50. Codec ID/Info : Advanced Video Coding
  51. Duration : 1h 33mn
  52. Bit rate : 687 Kbps
  53. Maximum bit rate : 6 001 Kbps
  54. Width : 720 pixels
  55. Height : 306 pixels
  56. Display aspect ratio : 2.35:1
  57. Frame rate mode : Constant
  58. Frame rate : 24.000 fps
  59. Color space : YUV
  60. Chroma subsampling : 4:2:0
  61. Bit depth : 8 bits
  62. Scan type : Progressive
  63. Bits/(Pixel*Frame) : 0.130
  64. Stream size : 461 MiB (82%)
  65. Writing library : x264 core 125 r2208 d9d2288
  66. Encoded date : UTC 2012-12-03 20:22:39
  67. Tagged date : UTC 2012-12-03 22:24:34
  68. Audio
  69. ID : 2
  70. Format : AAC
  71. Format/Info : Advanced Audio Codec
  72. Format profile : LC
  73. Codec ID : 40
  74. Duration : 1h 33mn
  75. Bit rate mode : Variable
  76. Bit rate : 144 Kbps
  77. Maximum bit rate : 181 Kbps
  78. Channel(s) : 2 channels
  79. Channel positions : Front: L R
  80. Sampling rate : 48.0 KHz
  81. Compression mode : Lossy
  82. Delay relative to video : 83ms
  83. Stream size : 96.2 MiB (17%)
  84. Language : English
  85. Encoded date : UTC 2012-12-03 22:24:28
  86. Tagged date : UTC 2012-12-03 22:24:34
  87. ------------------------------------------------------------------------------------------------------------------------------
  88. Plot: When an island off the coast of Ireland is invaded by bloodsucking aliens, the heroes discover that getting drunk is the
  89. only way to survive.
  90. ------------------------------------------------------------------------------------------------------------------------------
  91. Notes: Enjoy! CRF-21
  92. ------------------------------------------------------------------------------------------------------------------------------
  93. [IMG]http://lookpic.com/O/i2/987/KWNzLtRL.jpeg[/IMG]
  94. [IMG]http://lookpic.com/O/i2/517/4hR334Td.jpeg[/IMG]
  95. [IMG]http://lookpic.com/O/i2/806/xB1VZeD8.jpeg[/IMG]
  96. [IMG]http://lookpic.com/O/i2/1497/XGP7JCDX.jpeg[/IMG]
  97. ------------------------------------------------------------------------------------------------------------------------------
  98. Contact @ [email protected]
  99. currently looking for ANYTHING. If you have something to offer, contact me!
  100. ------------------------------------------------------------------------------------------------------------------------------
  101. Welcome to the few that give p2p a good name
  102. CM8, Rx, AXED and SANTi just to name a few
Comments powered by Disqus