1. ## ## #### ## ## ######## ###### ## ## #######
  2. ## ## ## ## ## ## ## ## ### ### ## ##
  3. ## ## ## ## ## ## ## #### #### ## ##
  4. ######### ## ## ## ###### ####### ## ## ### ## #######
  5. ## ## ## ## ## ## ## ## ## ## ##
  6. ## ## ## ## ## ## ## ## ## ## ## ##
  7. ## ## #### ### ######## ###### ## ## #######
  8. ########### Thx Hive - CM8 Doing It Right The First Time ###########
  9. [IMG]http://img823.imageshack.us/img823/4050/beautifulcreatures2013m.jpg[/IMG]
  10. Beautiful.Creatures.2013.HDRip.XVID.AC3.HQ.Hive-CM8
  11. Source: 1080p WEB-DL
  12. Video.: 720x304 @bitrate 1500 2pass
  13. Audio.: English AC3 5.1 @384
  14. Sample: Yes, included
  15. IMDb..: http://www.imdb.com/title/tt1559547/
  16. ENCODE
  17. quality was ok, but brightness, contrast and colouring werent perfect
  18. so fixed that, very nice now. also added sharpness and denoise
  19. got very nice
  20. enjoy
  21. General
  22. Complete name : Beautiful.Creatures.2013.HDRip.XVID.AC3.HQ.Hive-CM8.avi
  23. Format : AVI
  24. Format/Info : Audio Video Interleave
  25. File size : 1.64 GiB
  26. Duration : 2h 3mn
  27. Overall bit rate : 1 894 Kbps
  28. Writing application : Nandub v1.0rc2
  29. Writing library : Nandub build 1853/release
  30. Video
  31. ID : 0
  32. Format : MPEG-4 Visual
  33. Format profile : Advanced Simple@L5
  34. Format settings, BVOP : 2
  35. Format settings, QPel : Yes
  36. Format settings, GMC : No warppoints
  37. Format settings, Matrix : Default (H.263)
  38. Muxing mode : Packed bitstream
  39. Codec ID : XVID
  40. Codec ID/Hint : XviD
  41. Duration : 2h 3mn
  42. Bit rate : 1 500 Kbps
  43. Width : 720 pixels
  44. Height : 304 pixels
  45. Display aspect ratio : 2.35:1
  46. Frame rate : 23.976 fps
  47. Color space : YUV
  48. Chroma subsampling : 4:2:0
  49. Bit depth : 8 bits
  50. Scan type : Progressive
  51. Compression mode : Lossy
  52. Bits/(Pixel*Frame) : 0.286
  53. Stream size : 1.30 GiB (79%)
  54. Writing library : XviD 1.2.1 (UTC 2008-12-04)
  55. Audio
  56. ID : 1
  57. Format : AC-3
  58. Format/Info : Audio Coding 3
  59. Mode extension : CM (complete main)
  60. Format settings, Endianness : Big
  61. Codec ID : 2000
  62. Duration : 2h 3mn
  63. Bit rate mode : Constant
  64. Bit rate : 384 Kbps
  65. Channel(s) : 6 channels
  66. Channel positions : Front: L C R, Side: L R, LFE
  67. Sampling rate : 48.0 KHz
  68. Bit depth : 16 bits
  69. Compression mode : Lossy
  70. Stream size : 340 MiB (20%)
  71. Alignment : Split accross interleaves
  72. Interleave, duration : 42 ms (1.00 video frame)
  73. Interleave, preload duration : 500 ms
  74. PLOT
  75. Ethan longs to escape his small Southern town. He meets a mysterious new girl, Lena.
  76. Together, they uncover dark secrets about their respective families, their history,
  77. and their town.
  78. CAST
  79. Alden Ehrenreich ... Ethan Wate
  80. Alice Englert ... Lena Duchannes
  81. Jeremy Irons ... Macon Ravenwood
  82. Viola Davis ... Amma
  83. [img]http://img811.imageshack.us/img811/7907/82358069.png[/img]
  84. [img]http://img43.imageshack.us/img43/5692/bcbco.png[/img]
  85. [img]http://img20.imageshack.us/img20/175/bcbcbc.png[/img]
  86. [img]http://img21.imageshack.us/img21/5744/bcbcbcbbccbc.png[/img]
  87. [img]http://img5.imageshack.us/img5/752/bcbcbcbc.png[/img]
  88. [img]http://img542.imageshack.us/img542/3707/bcbcbcbcbc.png[/img]
  89. [video=http://www.youtube.com/watch?v=r9rjhB7KWEc]
  90. MANY THANKS
  91. Mr Fury
  92. GREETZ
  93. ViSiON,SPK,SceneLovers,PRESTiGE,SANTi,3LT0N,YanKeeS,COPYxRIGHT,THC,T0XiC
  94. D2U,LKRG,ADTRG,Feel-Free,KoDeKinG,FLAWL3SS,WBZ,BHRG,26K,NOVA,MAGNET
  95. Unevano,BigVik,Rapeseed,SAFC,goldadvance,KaN1vE,Pinnz,Wayne,TED
  96. SeeN,jtr,Limey,ICONiK,4PlayHD,THEDEN-RG,eXceSs,AKS74u,HiGH
  97. Mr Hive,trepario,stallone,and most P2P groups
  98. Great Work Guys!
  99. LOOKING FOR ANYTHING YOU WANT TO LOOK AND SOUND BETTER
  100. [email protected]
Comments powered by Disqus