1. ÜÛÛÛÛÛÛÛÛÛÛÛÛÛÛÛÛÛÛÛÛÛÛÛÛÛÛÛÛÛÛÛÛÛÛÛÛÛÛÛÛÛÛÛÛÛÛÛÛÛÛÛÛÛÛÛÛÛÛÛÛÛÛÛÛÛÛÛÛÛÛÛÛÛÛÛÛÛÛÛÛÛÛÛÛÛÛÛÛÛÛÜ
  2. ÛÛÛÛÛÛÛÛÛÛÛÛÛÛÛÛÛÛÛÛÛÛÛÛÛÛÛÛÛÛÛÛÛÛÛÛÛÛÛÛÛÛÛÛÛÛÛÛÛÛÛÛÛÛÛÛÛÛÛÛÛÛÛÛÛÛÛÛÛÛÛÛÛÛÛÛÛÛÛÛÛÛÛÛÛÛÛÛÛÛÛÛÛÛ
  3. ÛÛÛÛÛÛÛÛÛÛÛÛÛÛÛÛÛÛÛÛÛÛÛÛÛÛÛÛÛÛÛÛÛÛÛÛÛÛÛÛÛÛÛÛÛÛÛÛÛÛÛÛÛÛÛÛÛÛÛÛÛÛÛÛÛÛÛÛÛÛÛÛÛÛÛÛÛÛÛÛÛÛÛÛÛÛÛÛÛÛÛÛÛÛ
  4. Û ÜÜÜÜÜÜÜÜÜÜÜÜÜÜÜÜÜÜÜÜÜÜÜÜÜÜÜÜÜÜÜÜÜÜÜÜÜÜÜÜÜÜÜÜÜÜÜÜÜÜÜÜÜÜÜÜÜÜÜÜÜÜÜÜÜÜÜÜÜÜÜÜÜÜÜÜÜÜÜÜÜÜÜÜÜÜÜÜÜÜ Û
  5. Û ÛÛÛÛÛÛÛÛÛÛÛÛÛÛÛÛÛÛÛÛÛÛÛÛÛÛÛÛÛÛÛÛÛÛÛÛÛÛÛÛÛÛÛÛÛÛÛÛÛÛÛÛÛÛÛÛÛÛÛÛÛÛÛÛÛÛÛÛÛÛÛÛÛÛÛÛÛÛÛÛÛÛÛÛÛÛÛÛÛÛ Û
  6. ÜÜÛÛÛÛÛÛÛÛÛÛÛÛÛÛÛÛÛÛÛÛÛÛÛÛÛÛÛÛÛÛÛÛÛÛÛÛÛÛÛÛÛÛÛÛÛÛÛÛÛÛÛÛÛÛÛÛÛÛÛÛÛÛÛÛÛÛÛÛÛÛÛÛÛÛÛÛÛÛÛÛÛÛÛÛÛÛÛÛÛÛÜÜ
  7. ÛÛÛÛÛÛÛÛÛÛÛÛÛÛÛÛÛÛÛÛÛÛÛÛÛÛÛÛÛÛÛÛÛÛÛÛÛÛÛÛÛÛÛÛÛÛÛÛÛÛÛÛÛÛÛÛÛÛÛÛÛÛÛÛÛÛÛÛÛÛÛÛÛÛÛÛÛÛÛÛÛÛÛÛÛÛÛÛÛÛÛÛÛÛ
  8. ÛÛÛÛÛÛÛÛÛ°°°°°°°°°°°°°°°°ÛÛÛÛ ÛÛÛÛ°°°°°°°°°°°°°°°°ÛÛÛÛÛÛÛÛÛ
  9. ÛÛÛÛÛÛÛÛ°°°°°°°°°°°°°°°°°ÛÛÛÛ ÛÛÛÛ°°°°°°°°°°°°°°°°°ÛÛÛÛÛÛÛÛ
  10. ÛÛÛÛÛÛÛ°°°°°°°°°°°°°°°°°°ÛÛÛÛ EXVID ÛÛÛÛ°°°°°°°°°°°°°°°°°°ÛÛÛÛÛÛÛ
  11. ÛÛÛÛÛÛÛ°°°°°°°°°°°°°°ÛÛÛÛÛÛÛÛ ÛÛÛÛÛÛÛÛ°°°°°°°°°°°°°°ÛÛÛÛÛÛÛ
  12. ÛÛÛÛÛÛÛ°°°°°°°°°°°°°ÛÛÛÛÛÛÛÛÛ ßßßßßßßßßßßßßßßßßßßßßßßßßßßßßßßß ÛÛÛÛÛÛÛÛÛ°°°°°°°°°°°°°ÛÛÛÛÛÛÛ
  13. ÛÛÛÛÛÛ°°°°°°°°°°°°°ÛÛÛÛÛÛÛÛÛÛ ÛÛÛÛÛÛÛÛÛÛ°°°°°°°°°°°°°ÛÛÛÛÛÛ
  14. ÛÛÛÛÛÛ°°°°°°°°°°°°ÛÛÛÛÛÛÛÛÛÛÛ Filled the Archives ÛÛÛÛÛÛÛÛÛÛÛ°°°°°°°°°°°°ÛÛÛÛÛÛ
  15. ÛÛÛÛÛÛ°°°°°°°°°°°°ÛÛÛÛÛÛÛÛÛÛÛ ÛÛÛÛÛÛÛÛÛÛÛ°°°°°°°°°°°°ÛÛÛÛÛÛ
  16. ÛÛÛÛÛÛ°°°°°°°°°°°°ÛÛÛÛÛÛÛÛÛÛÛ ßßßßßßßßßßßßßßßßßßßßßßßßßßßßßßßß ÛÛÛÛÛÛÛÛÛÛÛ°°°°°°°°°°°°ÛÛÛÛÛÛ
  17. ÛÛÛÛÛÛ°°°°°°°°°°°°ÛÛÛÛÛÛÛÛÛÛÛ ÛÛÛÛÛÛÛÛÛÛÛ°°°°°°°°°°°°ÛÛÛÛÛÛ
  18. ÛÛÛÛÛÛ°°°°°°°°°°°°ÛÛÛÛÛÛÛÛÛÛÛ With: ÛÛÛÛÛÛÛÛÛÛÛ°°°°°°°°°°°°ÛÛÛÛÛÛ
  19. ÛÛÛÛÛÛ°°°°°°°°°°°°ÛÛÛÛÛÛÛÛÛÛÛ ÛÛÛÛÛÛÛÛÛÛÛ°°°°°°°°°°°°ÛÛÛÛÛÛ
  20. ÛÛÛÛÛÛ°°°°°°°°°°°°ÛÛÛÛÛÛÛÛÛÛÛ ßßßßßßßßßßßßßßßßßßßßßßßßßßßßßßßß ÛÛÛÛÛÛÛÛÛÛÛ°°°°°°°°°°°°ÛÛÛÛÛÛ
  21. ÛÛÛÛÛÛÛ°°°°°°°°°°°°ÛÛÛÛÛÛÛÛÛÛ ÛÛÛÛÛÛÛÛÛÛ°°°°°°°°°°°°ÛÛÛÛÛÛÛ
  22. ÛÛÛÛÛÛÛ°°°°°°°°°°°°°ÛÛÛÛÛÛÛÛÛ ² ²²²² ÛÛÛÛÛÛÛÛÛ°°°°°°°°°°°°°ÛÛÛÛÛÛÛ
  23. ÛÛÛÛÛÛÛ°°°°°°°°°°°°°°ÛÛÛÛÛÛÛÛ ²² ²²² E240 ÛÛÛÛÛÛÛÛ°°°°°°°°°°°°°°ÛÛÛÛÛÛÛ
  24. ÛÛÛÛÛÛÛ°°°°°°°°°°°°°°°°°°ÛÛÛÛ ²²² ²² ÛÛÛÛ°°°°°°°°°°°°°°°°°°ÛÛÛÛÛÛÛ
  25. ÛÛÛÛÛÛÛÛ°°°°°°°°°°°°°°°°°ÛÛÛÛ ²²²² ² SP (C) 2009 ÛÛÛÛ°°°°°°°°°°°°°°°°°ÛÛÛÛÛÛÛÛ
  26. ÛÛÛÛÛÛÛÛÛ°°°°°°°°°°°°°°°°ÛÛÛÛ ÛÛÛÛ°°°°°°°°°°°°°°°°ÛÛÛÛÛÛÛÛÛ
  27. ÛÛÛÛÛÛÛÛÛÛÛÛÛÛÛÛÛÛÛÛÛÛÛÛÛÛÛÛÛÛÛÛÛÛÛÛÛÛÛÛÛÛÛÛÛÛÛÛÛÛÛÛÛÛÛÛÛÛÛÛÛÛÛÛÛÛÛÛÛÛÛÛÛÛÛÛÛÛÛÛÛÛÛÛÛÛÛÛÛÛÛÛÛÛ
  28. ÛÛÛÛÛÛÛÛÛÛÛÛÛÛÛÛÛÛÛÛÛÛÛÛÛÛÛÛÛÛÛÛÛÛÛÛÛÛÛÛÛÛÛÛÛÛÛÛÛÛÛÛÛÛÛÛÛÛÛÛÛÛÛÛÛÛÛÛÛÛÛÛÛÛÛÛÛÛÛÛÛÛÛÛÛÛÛÛÛÛÛÛÛÛ
  29. ÛÛÛÛÛÛÛÛÛÛÛÛÛÛÛÛÛÛÛÛÛÛÛÛÛÛÛÛÛÛÛÛÛÛÛÛÛÛÛÛÛÛÛÛÛÛÛÛÛÛÛÛÛÛÛÛÛÛÛÛÛÛÛÛÛÛÛÛÛÛÛÛÛÛÛÛÛÛÛÛÛÛÛÛÛÛÛÛÛÛÛÛÛÛ
  30. ÛÛÛÛßÛÛÛÛÛÛÛ ÛÛÛÛÛ
  31. ÛÛÛÛÜÛÛÛÛÛÛÛ ÛÛÛÛ
  32. ÛÛÛÛÛÛÛÛÛÛÛÛ The.Man.With.The.Iron.Fists.2012.Theatrical.Cut.DVDRip.XviD-EXViD ÛÛÛ
  33. ÛÛÛÛÛÛÛÛÛÛÛÛ ÛÛÛÛ
  34. ÛÛÛÛÛÛÛÛÛÛÛÛ ÛÛÛÛÛ
  35. ÛÛÛÛÛÛÛÛÛÛÛÛÛÛÛÛÛÛÛÛÛÛÛÛÛÛÛÛÛÛÛÛÛÛÛÛÛÛÛÛÛÛÛÛÛÛÛÛÛÛÛÛÛÛÛÛÛÛÛÛÛÛÛÛÛÛÛÛÛÛÛÛÛÛÛÛÛÛÛÛÛÛÛÛÛÛÛÛÛÛÛÛÛÛ
  36. EXViD aims to iNTERNAL those releases which have been lost in the archives.
  37. EXViD aims to PRE non-internal releases which have poor sources and are likely skipped by others.
  38. http://www.imdb.com/title/tt1258972/
  39. Subtitles: EN HI, FR, NL, EN FD, FR FD
  40. Date: 2013.04
  41. Director: RZA
  42. Genres: Action
  43. Plot:
  44. In Jungle Village, the leader of the Lion's clan Gold Lion is summoned by the Governor and
  45. assigned to protect his gold that will be transported through the village. However he is betrayed
  46. and murdered by the greedy Silver Lion and Bronze Lion. Gold Lion's favorite son Zen Yi, a.k.a.
  47. The X-Blade, seeks revenge and heads to Jungle Village, but he is defeated by Brass Body and
  48. rescued by the local Blacksmith Thaddeus. Meanwhile the Gemini Female and the Gemini Male
  49. protect the Governor's gold, but they are vanquished by the army of Silver and Bronze Lion.
  50. The Blacksmith is abducted by the Lions and has his arms severed by Brass Body. However he
  51. is saved by the British Jack Knife, who is the emissary of the Emperor, and he manufactures
  52. iron arms for Thaddeus. Meanwhile the Governor sends the Jackal army to fight against the
  53. Lions and they hide the gold in the brothel of Madam Blossom. However, Madam Blossom and his
  54. girls form an army of black widows and together with Jack, Zen Yi and The...
  55. Cast:
  56. RZA ... Blacksmith
  57. Rick Yune ... Zen Yi, The X-Blade
  58. Russell Crowe ... Jack Knife
  59. Lucy Liu ... Madam Blossom
  60. Dave Bautista ... Brass Body
  61. Jamie Chung ... Lady Silk
  62. Cung Le ... Bronze Lion
  63. Byron Mann ... Silver Lion
  64. Daniel Wu ... Poison Dagger
  65. Zhu Zhu ... Chi Chi
  66. Chia Hui Liu ... Abbott (as Gordon Liu)
  67. Andrew Ng ... Senior Monk
  68. Kuan Tai Chen ... Gold Lion
  69. Yoyao Hsueh ... Copper Lion (as Xue Jing Yao)
  70. Telly Liu ... Iron Lion
  71. Stats:
  72. Format : AVI
  73. Format/Info : Audio Video Interleave
  74. File size : 700 MiB
  75. Duration : 1h 31mn
  76. Overall bit rate : 1 072 Kbps
  77. Writing application : VirtualDubMod 1.5.10.2 (build 2540/release)
  78. Writing library : VirtualDubMod build 2540/release
  79. Video
  80. ID : 0
  81. Format : MPEG-4 Visual
  82. Format profile : Advanced Simple@L5
  83. Format settings, BVOP : Yes
  84. Format settings, QPel : No
  85. Format settings, GMC : No warppoints
  86. Format settings, Matrix : Default (H.263)
  87. Muxing mode : Packed bitstream
  88. Codec ID : XVID
  89. Codec ID/Hint : XviD
  90. Duration : 1h 31mn
  91. Bit rate : 902 Kbps
  92. Width : 640 pixels
  93. Height : 272 pixels
  94. Display aspect ratio : 2.35:1
  95. Frame rate : 25.000 fps
  96. Color space : YUV
  97. Chroma subsampling : 4:2:0
  98. Bit depth : 8 bits
  99. Scan type : Progressive
  100. Bits/(Pixel*Frame) : 0.207
  101. Stream size : 589 MiB (84%)
  102. Writing library : XviD 64
  103. Audio
  104. ID : 1
  105. Format : MPEG Audio
  106. Format version : Version 1
  107. Format profile : Layer 3
  108. Mode : Joint stereo
  109. Codec ID : 55
  110. Codec ID/Hint : MP3
  111. Duration : 1h 31mn
  112. Bit rate mode : Variable
  113. Bit rate : 158 Kbps
  114. Minimum bit rate : 160 Kbps
  115. Channel(s) : 2 channels
  116. Sampling rate : 48.0 KHz
  117. Stream size : 103 MiB (15%)
  118. Alignment : Aligned on interleaves
  119. Interleave, duration : 24 ms (0.60 video frame)
  120. Interleave, preload duration : 116 ms
  121. Writing library : LAME4.0a
  122. Encoding settings : -m j -V 4 -q 5 -lowpass 18 --vbr-old -b 160
  123. Release notes:
  124. AMIABLE did the UNRATED, this is the THEATRiCAL cut.
  125. See http://www.movie-censorship.com/report.php?ID=129690 for differences.
  126. enjoy!
  127. Looking for:
  128. 75TB+ Archives
  129. DUTCH/FLEMiSH Archives
  130. Greets: CRBS EPiSODE FiCO FLS iLS KLASSiGER LiPSYNC MADE NODLABS RUNNER SPRiNTER
  131. ÛÛÛÛÛÛÛÛÛÛÛÛÛÛÛÛÛÛÛÛÛÛÛÛÛÛÛÛÛÛÛÛÛÛÛÛÛÛÛÛÛÛÛÛÛÛÛÛÛÛÛÛÛÛÛÛÛÛÛÛÛÛÛÛÛÛÛÛÛÛÛÛÛÛÛÛÛÛÛÛÛÛÛÛÛÛÛÛÛÛÛÛÛÛ
  132. ASCII DONE BY XX^NFO 2oo9
Comments powered by Disqus