1. http://www.imdb.com/title/tt2053425/
  2. Director:
  3. Jacques Audiard
  4. Writers:
  5. Jacques Audiard (screenplay), Thomas Bidegain (screenplay)
  6. Stars:
  7. Marion Cotillard, Matthias Schoenaerts and Armand Verdure
  8. Plotut in charge of his young son, Ali leaves Belgium for Antibes to live with his sister and her husband as a family. Ali's bond with Stephanie, a killer whale trainer, grows deeper after Stephanie suffers a horrible accident.
  9. Subs (.srt):
  10. ENGLISH, DEUTCH
  11. General
  12. Complete name : Rust.and.Bone.2012.FRENCH.BDRip.AC3.HORiZON-ArtSubs.avi
  13. Format : AVI
  14. Format/Info : Audio Video Interleave
  15. File size : 1.46 GiB
  16. Duration : 2h 2mn
  17. Overall bit rate : 1 713 Kbps
  18. Writing application : FairUse Wizard - http://fairusewizard.com
  19. Writing library : The best and REALLY easy backup tool
  20. Video
  21. ID : 0
  22. Format : MPEG-4 Visual
  23. Format profile : Advanced Simple@L5
  24. Format settings, BVOP : 1
  25. Format settings, QPel : No
  26. Format settings, GMC : No warppoints
  27. Format settings, Matrix : Default (MPEG)
  28. Muxing mode : Packed bitstream
  29. Codec ID : XVID
  30. Codec ID/Hint : XviD
  31. Duration : 2h 2mn
  32. Bit rate : 1 255 Kbps
  33. Width : 704 pixels
  34. Height : 288 pixels
  35. Display aspect ratio : 2.40:1
  36. Frame rate : 23.976 fps
  37. Color space : YUV
  38. Chroma subsampling : 4:2:0
  39. Bit depth : 8 bits
  40. Scan type : Progressive
  41. Compression mode : Lossy
  42. Bits/(Pixel*Frame) : 0.258
  43. Stream size : 1.07 GiB (73%)
  44. Writing library : XviD 1.2.0.dev47 (UTC 2006-11-01)
  45. Audio
  46. ID : 1
  47. Format : AC-3
  48. Format/Info : Audio Coding 3
  49. Mode extension : CM (complete main)
  50. Codec ID : 2000
  51. Duration : 2h 2mn
  52. Bit rate mode : Constant
  53. Bit rate : 448 Kbps
  54. Channel(s) : 6 channels
  55. Channel positions : Front: L C R, Side: L R, LFE
  56. Sampling rate : 48.0 KHz
  57. Bit depth : 16 bits
  58. Compression mode : Lossy
  59. Stream size : 391 MiB (26%)
  60. Alignment : Split accross interleaves
  61. Interleave, duration : 42 ms (1.00 video frame)
  62. Interleave, preload duration : 500 ms
Comments powered by Disqus