1. General
  2. http://uk.imdb.com/title/tt1713476/
  3. Complete name :The bay 2012 R5 DVDrip Xvid Ac3 ADTRG.avi
  4. Source : DVD9 [Thanks]
  5. Format : AVI
  6. Format/Info : Audio Video Interleave
  7. File size : 1.18 GiB
  8. Duration : 1h 21mn
  9. Overall bit rate : 2 090 Kbps
  10. Writing application : VirtualDubMod 1.5.10.2 (build 2540/release)
  11. Writing library : VirtualDubMod build 2540/release
  12. Video
  13. ID : 0
  14. Format : MPEG-4 Visual
  15. Format profile : Advanced Simple@L5
  16. Format settings, BVOP : 2
  17. Format settings, QPel : No
  18. Format settings, GMC : No warppoints
  19. Format settings, Matrix : Default (H.263)
  20. Muxing mode : Packed bitstream
  21. Codec ID : XVID
  22. Codec ID/Hint : XviD
  23. Duration : 1h 21mn
  24. Bit rate : 1 696 Kbps
  25. Width : 720 pixels
  26. Height : 368 pixels
  27. Display aspect ratio : 1.957
  28. Frame rate : 25.000 fps
  29. Color space : YUV
  30. Chroma subsampling : 4:2:0
  31. Bit depth : 8 bits
  32. Scan type : Progressive
  33. Compression mode : Lossy
  34. Bits/(Pixel*Frame) : 0.256
  35. Stream size : 985 MiB (81%)
  36. Writing library : XviD 64
  37. Audio
  38. ID : 1
  39. Format : AC-3
  40. Format/Info : Audio Coding 3
  41. Mode extension : CM (complete main)
  42. Codec ID : 2000
  43. Duration : 1h 21mn
  44. Bit rate mode : Constant
  45. Bit rate : 384 Kbps
  46. Channel(s) : 6 channels
  47. Channel positions : Front: L C R, Side: L R, LFE
  48. Sampling rate : 48.0 KHz
  49. Bit depth : 16 bits
  50. Compression mode : Lossy
  51. Delay relative to video : 1s 500ms
  52. Stream size : 223 MiB (18%)
  53. Alignment : Split accross interleaves
  54. Interleave, duration : 40 ms (1.00 video frame)
  55. Interleave, preload duration : 500 ms
Comments powered by Disqus