1. [IMG]http://img59.imageshack.us/img59/940/12rounds2reloaded.jpg[/IMG]
  2. [color=blue][size=4][b]12.Rounds.2.Reloaded.2013.UNRATED.HDRip.XVID.AC3.HQ.Hive-CM8[/b][/size][/color]
  3. Source: 720p Web-Dl
  4. Encode:
  5. brightness,contrast,rgb adjusted as needed
  6. added sharpness and denoise
  7. got very nice
  8. enjoy
  9. Video: 720x400 @bitrate 1600 2pass
  10. Audio: English AC3 5.1 @384
  11. Sample: yes included
  12. Subs: yes english in srt /subs
  13. http://www.imdb.com/title/tt2317524/
  14. General
  15. Complete name : 12.Rounds.2.Reloaded.2013.UNRATED.HDRip.XVID.AC3.HQ.Hive-CM8.avi
  16. Format : AVI
  17. Format/Info : Audio Video Interleave
  18. File size : 1.31 GiB
  19. Duration : 1h 34mn
  20. Overall bit rate : 1 993 Kbps
  21. Writing application : Nandub v1.0rc2
  22. Writing library : Nandub build 1853/release
  23. Video
  24. ID : 0
  25. Format : MPEG-4 Visual
  26. Format profile : Advanced Simple@L5
  27. Format settings, BVOP : 2
  28. Format settings, QPel : Yes
  29. Format settings, GMC : No warppoints
  30. Format settings, Matrix : Default (H.263)
  31. Muxing mode : Packed bitstream
  32. Codec ID : XVID
  33. Codec ID/Hint : XviD
  34. Duration : 1h 34mn
  35. Bit rate : 1 600 Kbps
  36. Width : 720 pixels
  37. Height : 400 pixels
  38. Display aspect ratio : 16:9
  39. Frame rate : 23.976 fps
  40. Color space : YUV
  41. Chroma subsampling : 4:2:0
  42. Bit depth : 8 bits
  43. Scan type : Progressive
  44. Compression mode : Lossy
  45. Bits/(Pixel*Frame) : 0.232
  46. Stream size : 1.05 GiB (80%)
  47. Writing library : XviD 1.2.1 (UTC 2008-12-04)
  48. Audio
  49. ID : 1
  50. Format : AC-3
  51. Format/Info : Audio Coding 3
  52. Mode extension : CM (complete main)
  53. Format settings, Endianness : Big
  54. Codec ID : 2000
  55. Duration : 1h 34mn
  56. Bit rate mode : Constant
  57. Bit rate : 384 Kbps
  58. Channel(s) : 6 channels
  59. Channel positions : Front: L C R, Side: L R, LFE
  60. Sampling rate : 48.0 KHz
  61. Bit depth : 16 bits
  62. Compression mode : Lossy
  63. Stream size : 259 MiB (19%)
  64. Alignment : Split accross interleaves
  65. Interleave, duration : 42 ms (1.00 video frame)
  66. Interleave, preload duration : 500 ms
  67. Plot:
  68. Nick Malloy portrays an Emergency Medical Technician (EMT) who finds himself caught in a deadly 12-round game of cat and mouse with a vigilante tied to the paramedic's past. With little time to spare and his wife's life hanging in the balance, the EMT must figure out why he's been chosen to be the pawn in this maniac's game before it's too late.
  69. Cast:
  70. Brian Markinson ... Heller
  71. Randy Orton ... Nick Malloy
  72. Sean Rogerson ... Detective Sykes
  73. Patrick Gilmore ... Simmons
  74. [img]http://img17.imageshack.us/img17/5340/125454.png[/img]
  75. [img]http://img689.imageshack.us/img689/5366/12545454.png[/img]
  76. [img]http://img21.imageshack.us/img21/5937/1254j.png[/img]
  77. [img]http://img195.imageshack.us/img195/9562/52522467.png[/img]
  78. [video=http://www.youtube.com/watch?v=6aEoFLcttes]
  79. Greetz
  80. LTFS,ViSiON,SPK,SceneLovers,PRESTiGE,SANTi,3LT0N,YanKeeS,COPYxRIGHT,THC,T0XiC
  81. D2U,LKRG,ADTRG,Feel-Free,KoDeKinG,FLAWL3SS,WBZ,BHRG,26K,NOVA,MAGNET
  82. Unevano,BigVik,Rapeseed,SAFC,goldadvance,KaN1vE,Pinnz,Wayne,HiGH
  83. SeeN,jtr,Limey,ICONiK,4PlayHD,THEDEN-RG,eXceSs,AKS74u,TED
  84. Mr Hive,rkofan,and most P2P groups
  85. Great Work Guys :D
  86. LOOKING FOR ANYTHING YOU WANT TO LOOK AND SOUND BETTER
  87. [email protected]
Comments powered by Disqus