1. ▄██████████████████████████████████████████████████████████████████████████████████████████▄
  2. ██████████████████████████████████████████████████████████████████████████████████████████████
  3. ██████████████████████████████████████████████████████████████████████████████████████████████
  4. █ ▄▄▄▄▄▄▄▄▄▄▄▄▄▄▄▄▄▄▄▄▄▄▄▄▄▄▄▄▄▄▄▄▄▄▄▄▄▄▄▄▄▄▄▄▄▄▄▄▄▄▄▄▄▄▄▄▄▄▄▄▄▄▄▄▄▄▄▄▄▄▄▄▄▄▄▄▄▄▄▄▄▄▄▄▄▄▄▄▄▄ █
  5. █ ██████████████████████████████████████████████████████████████████████████████████████████ █
  6. ▄▄██████████████████████████████████████████████████████████████████████████████████████████▄▄
  7. ██████████████████████████████████████████████████████████████████████████████████████████████
  8. █████████░░░░░░░░░░░░░░░░████ ████░░░░░░░░░░░░░░░░█████████
  9. ████████░░░░░░░░░░░░░░░░░████ ████░░░░░░░░░░░░░░░░░████████
  10. ███████░░░░░░░░░░░░░░░░░░████ EXVID ████░░░░░░░░░░░░░░░░░░███████
  11. ███████░░░░░░░░░░░░░░████████ ████████░░░░░░░░░░░░░░███████
  12. ███████░░░░░░░░░░░░░█████████ ▀▀▀▀▀▀▀▀▀▀▀▀▀▀▀▀▀▀▀▀▀▀▀▀▀▀▀▀▀▀▀▀ █████████░░░░░░░░░░░░░███████
  13. ██████░░░░░░░░░░░░░██████████ ██████████░░░░░░░░░░░░░██████
  14. ██████░░░░░░░░░░░░███████████ Filled the Archives ███████████░░░░░░░░░░░░██████
  15. ██████░░░░░░░░░░░░███████████ ███████████░░░░░░░░░░░░██████
  16. ██████░░░░░░░░░░░░███████████ ▀▀▀▀▀▀▀▀▀▀▀▀▀▀▀▀▀▀▀▀▀▀▀▀▀▀▀▀▀▀▀▀ ███████████░░░░░░░░░░░░██████
  17. ██████░░░░░░░░░░░░███████████ ███████████░░░░░░░░░░░░██████
  18. ██████░░░░░░░░░░░░███████████ With: ███████████░░░░░░░░░░░░██████
  19. ██████░░░░░░░░░░░░███████████ ███████████░░░░░░░░░░░░██████
  20. ██████░░░░░░░░░░░░███████████ ▀▀▀▀▀▀▀▀▀▀▀▀▀▀▀▀▀▀▀▀▀▀▀▀▀▀▀▀▀▀▀▀ ███████████░░░░░░░░░░░░██████
  21. ███████░░░░░░░░░░░░██████████ ██████████░░░░░░░░░░░░███████
  22. ███████░░░░░░░░░░░░░█████████ ▓ ▓▓▓▓ █████████░░░░░░░░░░░░░███████
  23. ███████░░░░░░░░░░░░░░████████ ▓▓ ▓▓▓ E240 ████████░░░░░░░░░░░░░░███████
  24. ███████░░░░░░░░░░░░░░░░░░████ ▓▓▓ ▓▓ ████░░░░░░░░░░░░░░░░░░███████
  25. ████████░░░░░░░░░░░░░░░░░████ ▓▓▓▓ ▓ SP (C) 2009 ████░░░░░░░░░░░░░░░░░████████
  26. █████████░░░░░░░░░░░░░░░░████ ████░░░░░░░░░░░░░░░░█████████
  27. ██████████████████████████████████████████████████████████████████████████████████████████████
  28. ██████████████████████████████████████████████████████████████████████████████████████████████
  29. ██████████████████████████████████████████████████████████████████████████████████████████████
  30. ████▀███████ █████
  31. ████▄███████ ████
  32. ████████████ True.Justice.Angel.Of.Death.2012.DVDRip.XviD-EXViD ███
  33. ████████████ ████
  34. ████████████ █████
  35. ██████████████████████████████████████████████████████████████████████████████████████████████
  36. EXViD aims to iNTERNAL those releases which have been lost in the archives.
  37. EXViD aims to PRE non-internal releases which have poor sources and are likely skipped by others.
  38. http://www.imdb.com/title/tt2157842/
  39. Subtitles: NL
  40. Date: 2013.01
  41. Director: Wayne Rose
  42. Genres: Action | Crime | Drama | Thriller
  43. Plot:
  44. Kane gets closer to his elusive prey the Ghost and lets Finch go into the field, but she may
  45. not be willing to do whatever it takes to complete her mission.
  46. Cast:
  47. Steven Seagal ... Elijah Kane
  48. Sarah Lind ... Sarah Montgomery
  49. William 'Big Sleeps' Stewart ... Andre Mason
  50. Lochlyn Munro ... Mark Simms
  51. Jesse Hutch ... Johnny Garcia
  52. Tanaya Beatty ... Finch
  53. Adrian Holmes ... Marcus
  54. Zak Santiago ... Edi Gogol
  55. Ian Tracey ... Dr. Zee
  56. Peter Kent ... Arnon Grossman
  57. Mackenzie Gray ... Darko
  58. Lily Gao ... Mei
  59. Ectasia Sanders ... Cathy
  60. Phoenix Ly ... Suicide Crewman
  61. Leif Havdale ... Grossman's Driver
  62. Stats:
  63. Format : AVI
  64. Format/Info : Audio Video Interleave
  65. File size : 700 MiB
  66. Duration : 1h 26mn
  67. Overall bit rate : 1 127 Kbps
  68. Writing application : VirtualDubMod 1.5.10.2 (build 2540/release)
  69. Writing library : VirtualDubMod build 2540/release
  70. Video
  71. ID : 0
  72. Format : MPEG-4 Visual
  73. Format profile : Advanced Simple@L5
  74. Format settings, BVOP : Yes
  75. Format settings, QPel : No
  76. Format settings, GMC : No warppoints
  77. Format settings, Matrix : Default (H.263)
  78. Muxing mode : Packed bitstream
  79. Codec ID : XVID
  80. Codec ID/Hint : XviD
  81. Duration : 1h 26mn
  82. Bit rate : 992 Kbps
  83. Width : 624 pixels
  84. Height : 352 pixels
  85. Display aspect ratio : 16:9
  86. Frame rate : 25.000 fps
  87. Color space : YUV
  88. Chroma subsampling : 4:2:0
  89. Bit depth : 8 bits
  90. Scan type : Progressive
  91. Bits/(Pixel*Frame) : 0.181
  92. Stream size : 616 MiB (88%)
  93. Writing library : XviD 64
  94. Audio
  95. ID : 1
  96. Format : MPEG Audio
  97. Format version : Version 1
  98. Format profile : Layer 3
  99. Mode : Joint stereo
  100. Mode extension : MS Stereo
  101. Codec ID : 55
  102. Codec ID/Hint : MP3
  103. Duration : 1h 26mn
  104. Bit rate mode : Variable
  105. Bit rate : 128 Kbps
  106. Channel(s) : 2 channels
  107. Sampling rate : 48.0 KHz
  108. Stream size : 75.7 MiB (11%)
  109. Alignment : Aligned on interleaves
  110. Interleave, duration : 24 ms (0.60 video frame)
  111. Interleave, preload duration : 151 ms
  112. Writing library : LAME3.98r
  113. Encoding settings : -m j -V 4 -q 2 -lowpass 17 --abr 128
  114. Release notes:
  115. enjoy!
  116. Looking for:
  117. 75TB+ Archives
  118. DUTCH/FLEMiSH Archives
  119. Greets: CRBS EPiSODE FiCO FLS iLS KLASSiGER LiPSYNC MADE NODLABS RUNNER SPRiNTER
  120. ██████████████████████████████████████████████████████████████████████████████████████████████
  121. ASCII DONE BY XX^NFO 2oo9
  122. RLS-Crc: 415243414445:42EECD90
Comments powered by Disqus