1. EXVID
  2. Filled the Archives
  3. With:
  4. E240
  5. SP (C) 2009
  6. Its.A.Disaster.2012.DVDRip.XviD-EXViD
  7. EXViD aims to iNTERNAL those releases which have been lost in the archives.
  8. EXViD aims to PRE non-internal releases which have poor sources and are likely skipped by others.
  9. http://www.imdb.com/title/tt1995341/
  10. Subtitles: NL
  11. Date: 2013.01
  12. Director: Todd Berger
  13. Genres: Comedy
  14. Plot:
  15. Four couples meet for Sunday brunch only to discover they are stuck in a
  16. house together as the world may be about to end.
  17. Cast:
  18. Julia Stiles ... Tracy Scott
  19. David Cross ... Glenn Randolph
  20. America Ferrera ... Hedy Galili
  21. Erinn Hayes ... Emma Mandrake
  22. Rachel Boston ... Lexi Kivel
  23. Jesse Draper ... Suzannah Price
  24. Todd Berger ... Hal Lousteau
  25. Rob McGillivray ... Gordon Alexander
  26. Blaise Miller ... Pete Mandrake
  27. Kevin M. Brennan ... Buck Kivel (as Kevin Brennan)
  28. Jeff Grace ... Shane Owens
  29. Helena Wei ... Emergency Broadcast Announcer
  30. Jared Sosa ... John From Liberty Financial
  31. Will Coleman ... Public Radio Host
  32. Stats:
  33. Format : AVI
  34. Format/Info : Audio Video Interleave
  35. File size : 700 MiB
  36. Duration : 1h 25mn
  37. Overall bit rate : 1 142 Kbps
  38. Writing application : VirtualDubMod 1.5.10.2 (build 2540/release)
  39. Writing library : VirtualDubMod build 2540/release
  40. Video
  41. ID : 0
  42. Format : MPEG-4 Visual
  43. Format profile : Advanced Simple@L5
  44. Format settings, BVOP : Yes
  45. Format settings, QPel : No
  46. Format settings, GMC : No warppoints
  47. Format settings, Matrix : Default (H.263)
  48. Muxing mode : Packed bitstream
  49. Codec ID : XVID
  50. Codec ID/Hint : XviD
  51. Duration : 1h 25mn
  52. Bit rate : 1 007 Kbps
  53. Width : 640 pixels
  54. Height : 272 pixels
  55. Display aspect ratio : 2.35:1
  56. Frame rate : 25.000 fps
  57. Color space : YUV
  58. Chroma subsampling : 4:2:0
  59. Bit depth : 8 bits
  60. Scan type : Progressive
  61. Bits/(Pixel*Frame) : 0.231
  62. Stream size : 617 MiB (88%)
  63. Writing library : XviD 64
  64. Audio
  65. ID : 1
  66. Format : MPEG Audio
  67. Format version : Version 1
  68. Format profile : Layer 3
  69. Mode : Joint stereo
  70. Codec ID : 55
  71. Codec ID/Hint : MP3
  72. Duration : 1h 25mn
  73. Bit rate mode : Variable
  74. Bit rate : 128 Kbps
  75. Channel(s) : 2 channels
  76. Sampling rate : 48.0 KHz
  77. Stream size : 75.2 MiB (11%)
  78. Alignment : Aligned on interleaves
  79. Interleave, duration : 24 ms (0.60 video frame)
  80. Interleave, preload duration : 518 ms
  81. Writing library : LAME3.98r
  82. Encoding settings : -m j -V 4 -q 2 -lowpass 17 --abr 128
  83. Release notes:
  84. enjoy!
  85. Looking for:
  86. 75TB+ Archives
  87. DUTCH/FLEMiSH Archives
  88. Greets: CRBS EPiSODE FiCO FLS iLS KLASSiGER LiPSYNC MADE NODLABS RUNNER SPRiNTER
  89. ASCII DONE BY XX^NFO 2oo9
  90. RLS-Crc: 4455535459:029AED9D09
Comments powered by Disqus