1. Format : AVI
  2. Format/Info : Audio Video Interleave
  3. Format profile : OpenDML
  4. File size : 2.31 GiB
  5. Duration : 1 h 39 min
  6. Overall bit rate : 3 329 kb/s
  7. Writing library : VirtualDub build 30091/release
  8. Video
  9. ID : 0
  10. Format : MPEG-4 Visual
  11. Format profile : Advanced [email protected]
  12. Format settings, BVOP : 2
  13. Format settings, QPel : No
  14. Format settings, GMC : No warppoints
  15. Format settings, Matrix : Default (H.263)
  16. Muxing mode : Packed bitstream
  17. Codec ID : XVID
  18. Codec ID/Hint : XviD
  19. Duration : 1 h 39 min
  20. Bit rate : 3 187 kb/s
  21. Width : 1 280 pixels
  22. Height : 544 pixels
  23. Display aspect ratio : 2.35:1
  24. Frame rate : 30.000 FPS
  25. Color space : YUV
  26. Chroma subsampling : 4:2:0
  27. Bit depth : 8 bits
  28. Scan type : Progressive
  29. Compression mode : Lossy
  30. Bits/(Pixel*Frame) : 0.153
  31. Stream size : 2.21 GiB (96%)
  32. Writing library : XviD 73
  33. Audio
  34. ID : 1
  35. Format : AC-3
  36. Format/Info : Audio Coding 3
  37. Mode extension : CM (complete main)
  38. Format settings, Endianness : Big
  39. Codec ID : 2000
  40. Duration : 1 h 39 min
  41. Bit rate mode : Constant
  42. Bit rate : 128 kb/s
  43. Channel(s) : 2 channels
  44. Channel positions : Front: L R
  45. Sampling rate : 48.0 kHz
  46. Frame rate : 31.250 FPS (1536 spf)
  47. Bit depth : 16 bits
  48. Compression mode : Lossy
  49. Stream size : 90.8 MiB (4%)
  50. Alignment : Aligned on interleaves
  51. Interleave, duration : 33 ms (1.00 video frame)
  52. Interleave, preload duratio : 512 ms

Trespass.Against.Us.2016.720p.SCREENER.XviD.AC3

Comments powered by Disqus