1. Berberian Sound Studio 2012 BDRip XviD HS
  2. http://www.imdb.com/title/tt1833844/
  3. Source -- 1080p Blu-ray AVC DTS-HD MA 5.1-ESiR
  4. File size : 1.31 GiB
  5. Duration : 1h 32mn
  6. Overall bit rate : 2 040 Kbps
  7. Video
  8. Codec ID/Hint : XviD
  9. Duration : 1h 32mn
  10. Bit rate : 1 903 Kbps
  11. Width : 640 pixels
  12. Height : 346 pixels
  13. Display aspect ratio : 1.85:1
  14. Frame rate : 23.976 fps
  15. Color space : YUV
  16. Chroma subsampling : 4:2:0
  17. Bit depth : 8 bits
  18. Scan type : Progressive
  19. Compression mode : Lossy
  20. Bits/(Pixel*Frame) : 0.358
  21. Stream size : 1.22 GiB (93%)
  22. Writing library : XviD 64
  23. Audio
  24. ID : 1
  25. Format : MPEG Audio
  26. Format version : Version 1
  27. Format profile : Layer 3
  28. Codec ID : 55
  29. Codec ID/Hint : MP3
  30. Duration : 1h 32mn
  31. Bit rate mode : Constant
  32. Bit rate : 128 Kbps
  33. Channel(s) : 2 channels
  34. Sampling rate : 48.0 KHz
  35. Compression mode : Lossy
  36. Stream size : 84.3 MiB (6%)
Comments powered by Disqus