1. [img]http://i.imgur.com/Baztx.jpg[/img]
  2. [img]http://i.imgur.com/fULfn.png[/img]
  3. [img]http://i.imgur.com/zaaR3.png[/img]
  4. [img]http://i.imgur.com/VZShM.png[/img]
  5. [img]http://i.imgur.com/agZkX.png[/img]
  6. http://www.imdb.com/title/tt1592576/
  7. Complete name : Swerve.2011.BDRip.Xvid.Ac3-ANALOG\S.2011.BDR.ANALOG.avi
  8. Format : AVI
  9. Format/Info : Audio Video Interleave
  10. File size : 1.37 GiB
  11. Duration : 1h 26mn
  12. Overall bit rate : 2 277 Kbps
  13. Video
  14. ID : 0
  15. Format : MPEG-4 Visual
  16. Format profile : Advanced Simple@L5
  17. Format settings, BVOP : 2
  18. Format settings, QPel : No
  19. Format settings, GMC : No warppoints
  20. Format settings, Matrix : Default (MPEG)
  21. Muxing mode : Packed bitstream
  22. Codec ID : XVID
  23. Codec ID/Hint : XviD
  24. Duration : 1h 26mn
  25. Bit rate : 1 821 Kbps
  26. Width : 720 pixels
  27. Height : 304 pixels
  28. Display aspect ratio : 2.35:1
  29. Frame rate : 24.000 fps
  30. Color space : YUV
  31. Chroma subsampling : 4:2:0
  32. Bit depth : 8 bits
  33. Scan type : Progressive
  34. Compression mode : Lossy
  35. Bits/(Pixel*Frame) : 0.347
  36. Stream size : 1.10 GiB (80%)
  37. Writing library : XviD 1.2.1 (UTC 2008-12-04)
  38. Audio
  39. ID : 1
  40. Format : AC-3
  41. Format/Info : Audio Coding 3
  42. Mode extension : CM (complete main)
  43. Format settings, Endianness : Big
  44. Codec ID : 2000
  45. Duration : 1h 26mn
  46. Bit rate mode : Constant
  47. Bit rate : 448 Kbps
  48. Channel(s) : 6 channels
  49. Channel positions : Front: L C R, Side: L R, LFE
  50. Sampling rate : 48.0 KHz
  51. Bit depth : 16 bits
  52. Compression mode : Lossy
  53. Stream size : 276 MiB (20%)
  54. Alignment : Aligned on interleaves
  55. Interleave, duration : 64 ms (1.54 video frames)
  56. Interleave, preload duration : 192 ms
  57. Title : F1_T4_Audio - English_ANALOG
  58. Sample : Yes
  59. Subs : N/A
  60. Source : Bluray/BD25-HDC THANX
  61. As humans, we perceive the world in analog. Everything we see and hear is a continuous transmission of information to our senses.
  62. [email protected]
  63. GREETS:
  64. Rx / REFiLL / BHRG / 26K /DTRG / Xtreme Encode / INSPiRAL / KoDeKinG /LEGiTiMATE / LEGi0N / HDC / PRESTIGE / HOPE / RESiSTANCE
  65. AND ALL THE OUTHER PLACES I LURK AROUND AT!!
  66. [img]http://i.imgur.com/Hxtmn.png[/img]
Comments powered by Disqus