1. ╔═──────────────────────────────═══════════════───────────────────────────────═╗
  2. ║ ║
  3. ║ ::: ::: ::::: ::: ::: ::::: ::: ::: ::: ::::: ║
  4. ║ ::: ::: ::::::: ::: ::: ::::::: ::::: ::: ::: ::::::: ║
  5. ║ ::: ::: ::::::::: ::: ::: ::::::::: ::: ::: ::: ::: ::::::::: ║
  6. ║ ::: ::: ::: ::: ::: ::: ::: ::: ::: ::: ::: ::: ::: ::: ║
  7. ║ ::: ::: ::: ::: ::::::: ::: ::: ::: ::: ::: ::: ::: ::: ║
  8. ║ ::: ::: ::: ::: :::::: ::: ::: ::: ::: ::: : ::: ::: ::: ║
  9. ║ ::: ::: ::: ::: ::::::: ::: ::: ::: ::: ::: ::: ::: ::: ::: ║
  10. ║ ::: ::: ::: ::: ::: ::: ::: ::: ::: ::: ::: : : ::: ::: ::: ║
  11. ║ :::..::: ::: ::: ::: ::: ::: ::: ::: ::: ::::: ::::: ::: ::: ║
  12. ║ :::::: ::: ::: ::: ::: ::: ::: ::::: ::::: ::::: ::: ::: ║
  13. ║ :::: ::: ::: ::: ::: ::: ::: ::: :::: :::: ::: ::: ║
  14. ╠═──────────────────────────────═══════════════───────────────────────────────═╣
  15. ║ ║
  16. │╨ ╨ ╨ ╨ ╨ ╨ ╨ ╨ ╨ ╨ ╨ ╨ ╨ ╨ ╨ ╨ ╨ NOTES ╨ ╨ ╨ ╨ ╨ ╨ ╨ ╨ ╨ ╨ ╨ ╨ ╨ ╨ ╨ ╨ ╨ ╨ │
  17. │ │
  18. │╨ ╨ ╨ ╨ ╨ ╨ ╨ ╨ ╨ ╨ ╨ ╨ ╨ ╨ ╨ ╨ ╨ NOTES ╨ ╨ ╨ ╨ ╨ ╨ ╨ ╨ ╨ ╨ ╨ ╨ ╨ ╨ ╨ ╨ ╨ ╨ │
  19. │ │
  20. │ │
  21. │ │
  22. │ Encoded By .......:UnKnOwN │
  23. │ Runtime ..........:1:48 │
  24. │ IMDb URL ........:http://www.imdb.com/title/tt0454876/ │
  25. │ Language .........:English │
  26. │ File Size ........:1.2gb │
  27. │ Release Date ......... 2012 │
  28. │ Source ......... Your Sister/Your wife │
  29. │ File Type ......... Single AVI │
  30. │ PS3 Compatible ....... Throw that Shit out the window │
  31. │ Genre ......... Horror/Thriller │
  32. │ │
  33. │ │
  34. │ Video │
  35. │ ID : 0 │
  36. │ Format : MPEG-4 Visual │
  37. │ Format profile : Advanced Simple@L5 │
  38. │ Format settings, BVOP : Yes │
  39. │ Format settings, QPel : No │
  40. │ Format settings, GMC : No warppoints │
  41. │ Format settings, Matrix : Custom │
  42. │ Codec ID : XVID │
  43. │ Codec ID/Hint : XviD │
  44. │ Duration : 1h 48mn │
  45. │ Bit rate : 1581kbps │
  46. │ Width : 640pixels │
  47. │ Height : 296pixels │
  48. │ Display aspect ratio : 2:21 │
  49. │ Frame rate : 25.000fps │
  50. │ Color space : YUV │
  51. │ Chroma subsampling : 4:2:0 │
  52. │ Bit depth : 8 bits │
  53. │ Scan type : Progressive │
  54. │ Bits/(Pixel*Frame) : 0.234 │
  55. │ Stream size : 892 MiB (86%) │
  56. │ Writing library : XviD 1.2.1 (UTC 2008-12-04) │
  57. │ │
  58. │ │
  59. │ Audio │
  60. │ ID : 1 │
  61. │ Format : AC3 │
  62. │ Format/Info : MPEG │
  63. │ Mode extension : CM (complete main) │
  64. │ Codec ID : 2000 │
  65. │ Duration : 1h 48mn │
  66. │ Bit rate mode : Constant │
  67. │ Bit rate : 128kbps │
  68. │ Channel(s) : 2channels │
  69. │ Channel positions : Front: L R │
  70. │ Sampling rate : 48.0 KHz │
  71. │ Bit depth : 16 bits │
  72. │ Stream size : 302 MiB │
  73. │ Alignment : Aligned on interleaves │
  74. │ Interleave, duration : 42 ms (1.00 video frame) │
  75. │ Interleave, preload duration : 512 ms │
  76. │ │
  77. │ │
  78. │ │
  79. │ │
  80. │ │
  81. │ │
  82. │ │
  83. │ SYNOPSIS │
  84. │A young man who survives a disaster at sea is hurtled into an epic journey of │
  85. │ adventure and discovery. While cast away, he forms an unexpected │
  86. │ connection with another survivor ... a fearsome Bengal tiger. │
  87. │ │
  88. │ │
  89. │ │
  90. │ │
  91. │ │
  92. │ │
  93. │ │
  94. │ │
  95. │ │
  96. │ │
  97. │ RELEASE INFO │
  98. │ Well your sister and wife got together this time and made it happen │
  99. │ did our thing with the video,synced the audio it's watchable don't like it │
  100. │ go to the cinemas,Movie is horrible anyways over rated imbd │
  101. │ │
  102. │ READ NFO │
  103. │ │
  104. │ There is a total of 10 minutes missing 5 minutes in the middle and │
  105. │ a minute here minute there but ending is all there │
  106. │ There is slight camera movement occasionally and some people do stand up │
  107. │ here and there for about 2 seconds or so.Now that you know check out samples │
  108. │ before you whine like you contributed anything to it │
  109. │ │
  110. │ Better yet you can wait for someone to lower saturation or increase it │
  111. │ and go much better best one to date,either way have fun │
  112. │ │
  113. ║ ║
  114. ║ ║
  115. ║ ║
  116. ╚══════════════════════════════════════════════════════════════════════════════╝
  117. ╔═╦═══════╗ ╔─╦──╦───╦────╦═───═╦═───═╦────╦───╦──╦─╗ ╔═══════╦═╗
  118. ╚╬╝ ╚─═════─═╝═╩══╩═══╩════╩═════╩═════╩════╩═══╩══╩═╚═─═════─═╝ ╚╬╝
  119. ║ ║
  120. ║ LOOKING FOR ║
  121. ║ Another copy of Skyfall ║
  122. ║ ║
  123. ║ How many more copies of skyfall will there be?don't you have anything ║
  124. ║ better to do how many different rips do you people need to download? ║
  125. ║ ║
  126. ║ ║
  127. ╔╬╦══════════════════════════════════════════════════════════════════════════╦╬╗
  128. ╚╦╝ ╨ ╨ ╨ ╨ ╨ ╨ ╨ ╨ ╨ ╨ ╨ ╨ ╨ ╨ GREETZ & RESPECT ╨ ╨ ╨ ╨ ╨ ╨ ╨ ╨ ╨ ╨ ╨ ╨ ╨ ╨╚╦╝
  129. ╚═══════════════════════╦══════════════════════════════╦═════════════════════╝
  130. ║ YOUR MUM ║
  131. ║ ║
  132. ║ MORE GOODIES COMING REAL SOON║
  133. ╚══════════════════════════════╝
Comments powered by Disqus